Статистика раздачи
Размер:  1,44 GB   |    Зарегистрирован:  10 дней   |    Скачан:  0 раз
DL-List: Нет

Полного источника не было: Никогда

 
     
 
 

MAGNAT ®

Пол:
Мужской
Стаж:
1 год 3 месяца
Сообщений:
8784

-Человек-невидимка / The Invisible Man-«Невидимое таит опасность»- -Страна: Австралия, США, Канада, Великобритания
Жанр: ужасы, фантастика, триллер, детектив
Год выпуска: 2020
Продолжительность: 02:04:23-Перевод: Профессиональный (дублированный) BD EUR
Субтитры: русские (форсированные)
Оригинальная аудиодорожка: нет-Режиссер: Ли Уоннелл / Leigh Whannell-В ролях: Элизабет Мосс, Оливер Джексон-Коэн, Харриет Дайер, Элдис Ходж, Сторм Рейд, Майкл Дорман, Бенедикт Харди, Рени Лим, Брайан Миган, Ник Кичи-Описание: На первый взгляд жизнь Сесилии кажется безупречной: огромный дом, бойфренд - гениальный ученый-миллионер. Но никто не знает, что на самом деле происходит за высокими стенами роскошного особняка... И даже идеально спланированный побег оказывается ловушкой. Невозможно спрятаться от преследователя, которого не видишь.
Качество видео: BDRip-AVC
Формат видео: MKV-Видео: MPEG-4 AVC, 936x392 (2.40:1), 23.976 fps, ~1178 kbps avg, 0.134 bit/pixel
Аудио: 48 kHz, AC3 Dolby Digital, 3/2 (L,C,R,l,r) + LFE ch, ~448 kbps avg-

MediaInfo

Код:
Complete name : D:\Раздача\Человек-невидимка (2020) BDRip-AVC_ivanes.mkv
Format : Matroska
Format version : Version 2
File size : 1.44 GiB
Duration : 2 h 4 min
Overall bit rate : 1 659 kb/s
Movie name : Человек-невидимка (2020) BDRip-AVC_ivanes
Encoded date : UTC 2020-06-25 22:00:09
Writing application : mkvmerge v4.4.0 ('Die Wiederkehr') сборка от Jan 3 2011 21:40:45
Writing library : libebml v1.0.0 + libmatroska v1.0.0
Cover : Yes
Attachments : cover.jpg
Video
ID : 1
Format : AVC
Format/Info : Advanced Video Codec
Format profile : High@L4.1
Format settings : CABAC / 12 Ref Frames
Format settings, CABAC : Yes
Format settings, Reference : 12 frames
Codec ID : V_MPEG4/ISO/AVC
Duration : 2 h 4 min
Bit rate : 1 178 kb/s
Width : 936 pixels
Height : 392 pixels
Display aspect ratio : 2.40:1
Frame rate mode : Constant
Frame rate : 23.976 (24000/1001) FPS
Color space : YUV
Chroma subsampling : 4:2:0
Bit depth : 8 bits
Scan type : Progressive
Bits/(Pixel*Frame) : 0.134
Stream size : 1.02 GiB (71%)
Title : Rip by ivanes
Writing library : x264 core 160 r3000 33f9e14
Encoding settings : cabac=1 / ref=12 / deblock=1:-3:-1 / analyse=0x3:0x113 / me=umh / subme=10 / psy=1 / psy_rd=1.00:0.00 / mixed_ref=1 / me_range=32 / chroma_me=1 / trellis=2 / 8x8dct=1 / cqm=0 / deadzone=21,11 / fast_pskip=0 / chroma_qp_offset=-2 / threads=12 / lookahead_threads=3 / sliced_threads=0 / nr=0 / decimate=1 / interlaced=0 / bluray_compat=0 / constrained_intra=0 / bframes=14 / b_pyramid=2 / b_adapt=2 / b_bias=0 / direct=1 / weightb=1 / open_gop=0 / weightp=2 / keyint=240 / keyint_min=23 / scenecut=40 / intra_refresh=0 / rc_lookahead=60 / rc=crf / mbtree=1 / crf=15.1 / qcomp=0.65 / qpmin=0 / qpmax=69 / qpstep=4 / vbv_maxrate=50000 / vbv_bufsize=62500 / crf_max=0.0 / nal_hrd=none / filler=0 / ip_ratio=1.40 / aq=1:1.00
Default : Yes
Forced : No
Statistics Tags Issue : mkvmerge v29.0.0 ('Like It Or Not') 64-bit 2020-06-25 21:59:46 / mkvmerge v4.4.0 ('Die Wiederkehr') сборка от Jan 3 2011 21:40:45 2020-06-25 22:00:09
FromStats_BitRate : 1209462
FromStats_Duration : 02:04:23.122000000
FromStats_FrameCount : 178936
FromStats_StreamSize : 1128295435
Audio
ID : 2
Format : AC-3
Format/Info : Audio Coding 3
Commercial name : Dolby Digital
Codec ID : A_AC3
Duration : 2 h 4 min
Bit rate mode : Constant
Bit rate : 448 kb/s
Channel(s) : 6 channels
Channel layout : L R C LFE Ls Rs
Sampling rate : 48.0 kHz
Frame rate : 31.250 FPS (1536 SPF)
Compression mode : Lossy
Stream size : 399 MiB (27%)
Title : BD EUR
Language : Russian
Service kind : Complete Main
Default : Yes
Forced : No
Text
ID : 3
Format : UTF-8
Codec ID : S_TEXT/UTF8
Codec ID/Info : UTF-8 Plain Text
Title : Forced
Language : Russian
Default : Yes
Forced : No

Скриншоты

[cybertorrent.ru].t21151.torrent 
Торрент: Зарегистрирован [ 2020-06-28 08:12 ] · 2AF7B905E90D43312230DAF10679461096C2F853

Скачать .torrent

Скачать

15 KB

Статус: проверено
Скачан: 0 раз
Размер: 1,44 GB  ·  Тип торрента
terms.php
Профиль [ЛС]
Показать сообщения:    

Текущее время: 09-Июл 01:59

Часовой пояс: UTC ± 0



Вы не можете начинать темы
Вы не можете отвечать на сообщения
Вы не можете редактировать свои сообщения
Вы не можете удалять свои сообщения
Вы не можете голосовать в опросах
Вы не можете прикреплять файлы к сообщениям
Вы можете скачивать файлы