Статистика раздачи
Нет
 
     
 
 

MAGNAT ®

Пол:
Мужской
Стаж:
1 год 3 месяца
Сообщений:
8784

Превращение / Becoming
«You Think You Know The One You Love»
Страна: США
Жанр: Ужасы
Год выпуска: 2020
Продолжительность: 01:38:37-Перевод: Профессиональный (многоголосый закадровый) | (iTunes)
Cубтитры: Русские (Full), Английские (Full, SDH)
Оригинальная аудиодорожка: Английский-Режиссёр: Омар Наим / Omar Naim
В ролях: Тоби Кеббелл, Пенелопа Митчелл, Джейсон Патрик, Джеффри Дэниэл Филлипс, Бет Бродерик, Стефен Райдер, Мелисса Болона, Лью Темпл, Джон Ньюберг, Zander Essex
Описание: Молодая супружеская пара Алекс и Лиза сталкивается с древним злом: Алекс оказывается во власти мрачной сущности, которая начинает вытеснять его собственную личность.-Тип релиза: BDRemux 1080p
Контейнер: MKV-Видео: AVC/H.264, 1920x1080, 32800 Kbps, 23.976 fps
Аудио 1: Русский | AC-3, 6 ch, 384 Kbps, 48.0 KHz
Аудио 2: Английский | DTS-HD MA, 6 ch, 3644 Kbps, 48.0 KHz, 24-bit (DTS Core: 5.1 / 48 kHz / 1509 kbps / 24-bit)
-

MediaInfo

Код:
General
Unique ID : 242613674942129686660172263327478142449 (0xB685B1B3BDD3F9AFE4ED92A5D9B955F1)
Complete name : /Volumes/Promise Pegasus/Becoming.BDRemux.1080p.mkv
Format : Matroska
Format version : Version 4
File size : 25.4 GiB
Duration : 1h 38mn
Overall bit rate mode : Variable
Overall bit rate : 36.8 Mbps
Movie name : Becoming BDRemux 1080p
Encoded date : UTC 2020-06-23 14:32:01
Writing application : mkvmerge v47.0.0 ('Black Flag') 64-bit
Writing library : libebml v1.3.10 + libmatroska v1.5.2
Video
ID : 1
Format : AVC
Format/Info : Advanced Video Codec
Format profile : High@L4.1
Format settings : CABAC / 4 Ref Frames
Format settings, CABAC : Yes
Format settings, ReFrames : 4 frames
Codec ID : V_MPEG4/ISO/AVC
Duration : 1h 38mn
Bit rate mode : Variable
Bit rate : 32.8 Mbps
Maximum bit rate : 36.0 Mbps
Width : 1 920 pixels
Height : 1 080 pixels
Display aspect ratio : 16:9
Frame rate mode : Constant
Frame rate : 23.976 (24000/1001) fps
Color space : YUV
Chroma subsampling : 4:2:0
Bit depth : 8 bits
Scan type : Progressive
Bits/(Pixel*Frame) : 0.660
Stream size : 22.6 GiB (89%)
Language : English
Default : Yes
Forced : No
Audio #1
ID : 2
Format : AC-3
Format/Info : Audio Coding 3
Commercial name : Dolby Digital
Codec ID : A_AC3
Duration : 1h 38mn
Bit rate mode : Constant
Bit rate : 384 Kbps
Channel(s) : 6 channels
Channel layout : L R C LFE Ls Rs
Sampling rate : 48.0 KHz
Frame rate : 31.250 fps (1536 SPF)
Compression mode : Lossy
Stream size : 271 MiB (1%)
Title : Russian MVO iTunes
Language : Russian
Service kind : Complete Main
Default : Yes
Forced : No
Audio #2
ID : 3
Format : DTS XLL
Format/Info : Digital Theater Systems
Commercial name : DTS-HD Master Audio
Codec ID : A_DTS
Duration : 1h 38mn
Bit rate mode : Variable
Bit rate : 3 644 Kbps
Channel(s) : 6 channels
Channel layout : C L R Ls Rs LFE
Sampling rate : 48.0 KHz
Frame rate : 93.750 fps (512 SPF)
Bit depth : 24 bits
Compression mode : Lossless
Stream size : 2.51 GiB (10%)
Title : English Original
Language : English
Default : No
Forced : No
Text #1
ID : 4
Format : UTF-8
Codec ID : S_TEXT/UTF8
Codec ID/Info : UTF-8 Plain Text
Duration : 1h 31mn
Bit rate : 64 bps
Count of elements : 918
Stream size : 43.6 KiB (0%)
Title : Russian full
Language : Russian
Default : No
Forced : No
Text #2
ID : 5
Format : UTF-8
Codec ID : S_TEXT/UTF8
Codec ID/Info : UTF-8 Plain Text
Duration : 1h 34mn
Bit rate : 36 bps
Count of elements : 947
Stream size : 25.3 KiB (0%)
Title : English full
Language : English
Default : No
Forced : No
Text #3
ID : 6
Format : UTF-8
Codec ID : S_TEXT/UTF8
Codec ID/Info : UTF-8 Plain Text
Duration : 1h 37mn
Bit rate : 37 bps
Count of elements : 1010
Stream size : 26.9 KiB (0%)
Title : English SDH
Language : English
Default : No
Forced : No
Menu
00:00:00.000 : en:Chapter 1
00:12:06.225 : en:Chapter 2
00:19:45.809 : en:Chapter 3
00:29:54.167 : en:Chapter 4
00:40:59.123 : en:Chapter 5
00:51:16.114 : en:Chapter 6
01:01:36.943 : en:Chapter 7
01:10:44.031 : en:Chapter 8
01:18:46.888 : en:Chapter 9
01:24:47.290 : en:Chapter 10
01:31:49.670 : en:Chapter 11

Скриншоты

Профиль [ЛС]
Показать сообщения:    

Текущее время: 09-Июл 01:30

Часовой пояс: UTC ± 0



Вы не можете начинать темы
Вы не можете отвечать на сообщения
Вы не можете редактировать свои сообщения
Вы не можете удалять свои сообщения
Вы не можете голосовать в опросах
Вы не можете прикреплять файлы к сообщениям
Вы не можете скачивать файлы