Статистика раздачи
Нет
 
     
 
 

MAGNAT ®

Пол:
Мужской
Стаж:
1 год 3 месяца
Сообщений:
8784

You Should Have Left
Тебе стоило уйти

Страна: США
Жанр: Ужасы, детектив
Год выпуска: 2020
Продолжительность: 01:33:29
Перевод: Любительский (многоголосый закадровый) HDRezka Studio немного ненормативной лексики
Субтитры: Русские (forced), английские
Оригинальная аудиодорожка: Английский
Режиссер: Дэвид Кепп / David Koepp
В ролях: Кевин Бэйкон, Аманда Сайфред, Колин Блюмено, Эли Пауэрс, Эйвери Тиу Эссекс, Лоури Энн Ричардс, Джошуа Си Джексон
Описание: Тео Конрой - обеспеченный бывший банкир на пенсии, чей брак с намного более молодой женой-актрисой, Сюзанной, трещит по швам из-за его ревности и мрачных теней в его прошлом. Стремясь наладить отношения, Тео и Сюзанна отправляются вместе с шестилетней дочкой Эллой отдохнуть в съемном загородном доме в Уэльсе. Однако вскоре после приезда Тео начинает подозревать, что некая зловещая сила в доме знает их с Сюзанной секреты даже лучше, чем они сами знают друг друга.
Тип релиза: WEB-DL 1080p
Контейнер: MKV
Видео: MPEG-4 AVC, 1080p, 1920:1040 (1.85:1), 7142 kbps, 23.976 fps
Аудио 1: АС3, 6 ch, 48 kHz, 448 kbps, 16 bits Русский MVO HDRezka Studio
Аудио 2: Е-AC3, 6 ch, 48 kHz, 640 kbps, 16 bits Английский
Формат субтитров: SRT

MediaInfo

General
Unique ID : 316868363878147896475510646834622128688 (0xEE62A085D64A0B81C67F40A1D8E06230)
Complete name : G:\You.Should.Have.Left.2020.AMZN.WEB-DL.1080p.mkv
Format : Matroska
Format version : Version 4
File size : 5.38 GiB
Duration : 1 h 33 min
Overall bit rate : 8 233 kb/s
Encoded date : UTC 2020-06-21 19:22:55
Writing application : mkvmerge v20.0.0 ('I Am The Sun') 64-bit
Writing library : libebml v1.3.5 + libmatroska v1.4.8
Video
ID : 1
Format : AVC
Format/Info : Advanced Video Codec
Format profile : High@L4
Format settings : CABAC / 4 Ref Frames
Format settings, CABAC : Yes
Format settings, Reference frames : 4 frames
Codec ID : V_MPEG4/ISO/AVC
Duration : 1 h 33 min
Bit rate mode : Constant
Bit rate : 7 142 kb/s
Nominal bit rate : 10 000 kb/s
Width : 1 920 pixels
Height : 1 040 pixels
Display aspect ratio : 1.85:1
Frame rate mode : Constant
Frame rate : 23.976 (24000/1001) FPS
Color space : YUV
Chroma subsampling : 4:2:0
Bit depth : 8 bits
Scan type : Progressive
Bits/(Pixel*Frame) : 0.149
Stream size : 4.66 GiB (87%)
Title : NTG
Language : English
Default : Yes
Forced : No
Color range : Limited
Color primaries : BT.709
Transfer characteristics : BT.709
Matrix coefficients : BT.709
Audio #1
ID : 2
Format : AC-3
Format/Info : Audio Coding 3
Commercial name : Dolby Digital
Codec ID : A_AC3
Duration : 1 h 33 min
Bit rate mode : Constant
Bit rate : 448 kb/s
Channel(s) : 6 channels
Channel layout : L R C LFE Ls Rs
Sampling rate : 48.0 kHz
Frame rate : 31.250 FPS (1536 SPF)
Compression mode : Lossy
Stream size : 300 MiB (5%)
Title : MVO HDRezka Studio
Language : Russian
Service kind : Complete Main
Default : Yes
Forced : No
Audio #2
ID : 3
Format : E-AC-3
Format/Info : Enhanced AC-3
Commercial name : Dolby Digital Plus
Codec ID : A_EAC3
Duration : 1 h 33 min
Bit rate mode : Constant
Bit rate : 640 kb/s
Channel(s) : 6 channels
Channel layout : L R C LFE Ls Rs
Sampling rate : 48.0 kHz
Frame rate : 31.250 FPS (1536 SPF)
Compression mode : Lossy
Stream size : 428 MiB (8%)
Language : English
Service kind : Complete Main
Default : No
Forced : No
Text #1
ID : 4
Format : UTF-8
Codec ID : S_TEXT/UTF8
Codec ID/Info : UTF-8 Plain Text
Duration : 1 h 26 min
Bit rate : 2 b/s
Count of elements : 35
Stream size : 1.65 KiB (0%)
Title : forced
Language : Russian
Default : Yes
Forced : No
Text #2
ID : 5
Format : UTF-8
Codec ID : S_TEXT/UTF8
Codec ID/Info : UTF-8 Plain Text
Duration : 1 h 27 min
Bit rate : 42 b/s
Count of elements : 1162
Stream size : 27.1 KiB (0%)
Language : English
Default : No
Forced : No

Скриншоты



Профиль [ЛС]
Показать сообщения:    

Текущее время: 09-Июл 02:48

Часовой пояс: UTC ± 0



Вы не можете начинать темы
Вы не можете отвечать на сообщения
Вы не можете редактировать свои сообщения
Вы не можете удалять свои сообщения
Вы не можете голосовать в опросах
Вы не можете прикреплять файлы к сообщениям
Вы не можете скачивать файлы