Статистика раздачи
Нет
 
     
 
 

MAGNAT ®

Пол:
Мужской
Стаж:
1 год 3 месяца
Сообщений:
8784

Сила природы
Force of Nature

Страна: США
Жанр: Боевик
Год выпуска: 2020
Продолжительность: 01:31:07
Перевод: Любительский (многоголосый закадровый) HDRezka Studio
Субтитры: Русские forced, английские
Оригинальная аудиодорожка: Английский
Режиссер: Майкл Полиш / Michael Polish
В ролях: Мэл Гибсон, Кейт Босворт, Эмиль Хирш, Дэвид Зайас, Стефани Кайо, Тайлер Джон Олсон, Уильям Кэтлетт, Джаспер Полиш, Свен Теммел, Джеси Маккинни
Описание: Детектив полиции в отставке во время урагана вместе с остальными жильцами оказывается в ловушке в многоэтажном здании. Там же группа опасных преступников планирует провернуть ограбление.
Тип релиза: BDRemux 1080p
Контейнер: MKV
Видео: MPEG-4 AVC, 1080p, 1920:1080 (16:9), 26972 kbps, 23.976 fps
Аудио 1: АС3, 6 ch, 48 kHz, 448 kbps, 16 bits Русский MVO HDRezka Studio
Аудио 2: DTS-HD MA, 6 ch, 48 kHz, 4120 kbps, 24-bit (DTS Core 6 ch, 48 kHz, 1509 kbps, 24-bit) Английский
Формат субтитров: SRT

MediaInfo

General
Unique ID : 299963289049604758250800276822855438803 (0xE1AAD3FBB950F66B8136FAEAEDAED1D3)
Complete name : G:\Force.of.Nature.2020.REMUX.mkv
Format : Matroska
Format version : Version 4
File size : 19.9 GiB
Duration : 1 h 31 min
Overall bit rate mode : Variable
Overall bit rate : 31.3 Mb/s
Encoded date : UTC 2020-06-21 13:12:09
Writing application : mkvmerge v20.0.0 ('I Am The Sun') 64-bit
Writing library : libebml v1.3.5 + libmatroska v1.4.8
Video
ID : 1
Format : AVC
Format/Info : Advanced Video Codec
Format profile : High@L4.1
Format settings : CABAC / 4 Ref Frames
Format settings, CABAC : Yes
Format settings, Reference frames : 4 frames
Codec ID : V_MPEG4/ISO/AVC
Duration : 1 h 31 min
Bit rate mode : Variable
Bit rate : 26.7 Mb/s
Maximum bit rate : 37.0 Mb/s
Width : 1 920 pixels
Height : 1 080 pixels
Display aspect ratio : 16:9
Frame rate mode : Constant
Frame rate : 23.976 (24000/1001) FPS
Color space : YUV
Chroma subsampling : 4:2:0
Bit depth : 8 bits
Scan type : Progressive
Bits/(Pixel*Frame) : 0.537
Stream size : 17.0 GiB (85%)
Language : English
Default : Yes
Forced : No
Audio #1
ID : 2
Format : AC-3
Format/Info : Audio Coding 3
Commercial name : Dolby Digital
Codec ID : A_AC3
Duration : 1 h 31 min
Bit rate mode : Constant
Bit rate : 448 kb/s
Channel(s) : 6 channels
Channel layout : L R C LFE Ls Rs
Sampling rate : 48.0 kHz
Frame rate : 31.250 FPS (1536 SPF)
Compression mode : Lossy
Stream size : 292 MiB (1%)
Title : MVO HDRezka Studio
Language : Russian
Service kind : Complete Main
Default : Yes
Forced : No
Audio #2
ID : 3
Format : DTS XLL
Format/Info : Digital Theater Systems
Commercial name : DTS-HD Master Audio
Codec ID : A_DTS
Duration : 1 h 31 min
Bit rate mode : Variable
Bit rate : 4 120 kb/s
Channel(s) : 6 channels
Channel layout : C L R Ls Rs LFE
Sampling rate : 48.0 kHz
Frame rate : 93.750 FPS (512 SPF)
Bit depth : 24 bits
Compression mode : Lossless
Stream size : 2.62 GiB (13%)
Language : English
Default : No
Forced : No
Text #1
ID : 4
Format : UTF-8
Codec ID : S_TEXT/UTF8
Codec ID/Info : UTF-8 Plain Text
Duration : 1 h 25 min
Bit rate : 2 b/s
Count of elements : 46
Stream size : 1.68 KiB (0%)
Title : forced
Language : Russian
Default : Yes
Forced : No
Text #2
ID : 5
Format : UTF-8
Codec ID : S_TEXT/UTF8
Codec ID/Info : UTF-8 Plain Text
Duration : 1 h 26 min
Bit rate : 51 b/s
Count of elements : 1139
Stream size : 32.9 KiB (0%)
Language : English
Default : No
Forced : No
Menu
00:00:00.000 : en:Chapter 01
00:06:31.474 : en:Chapter 02
00:13:17.130 : en:Chapter 03
00:16:04.672 : en:Chapter 04
00:21:07.975 : en:Chapter 05
00:26:09.568 : en:Chapter 06
00:31:58.375 : en:Chapter 07
00:37:10.395 : en:Chapter 08
00:43:02.121 : en:Chapter 09
00:49:38.559 : en:Chapter 10
00:56:44.735 : en:Chapter 11
01:00:58.905 : en:Chapter 12
01:07:58.283 : en:Chapter 13
01:12:43.150 : en:Chapter 14
01:17:51.584 : en:Chapter 15
01:24:53.255 : en:Chapter 16
Профиль [ЛС]
Показать сообщения:    

Текущее время: 09-Июл 02:12

Часовой пояс: UTC ± 0



Вы не можете начинать темы
Вы не можете отвечать на сообщения
Вы не можете редактировать свои сообщения
Вы не можете удалять свои сообщения
Вы не можете голосовать в опросах
Вы не можете прикреплять файлы к сообщениям
Вы не можете скачивать файлы