Статистика раздачи
Нет
 
     
 
 

MAGNAT ®

Пол:
Мужской
Стаж:
1 год 3 месяца
Сообщений:
8784

Мисс Фрайни Фишер и гробница слёз / Miss Fisher and the Crypt of Tears
-
Страна: Австралия / Every Cloud Productions
Жанр: Детектив, приключения
Год выпуска: 2020
Продолжительность: 01:41:07-Перевод: Любительский (многоголосый закадровый) | ViruseProject
Cубтитры: Русские (Forced, Full), Английские (Full)
Оригинальная аудиодорожка: Английский-Режиссёр: Тони Тилс / Tony Tilse
В ролях: Эсси Дэвис, Эшли Каммингс, Дэниэл Лапэйн, Руперт Пенри-Джонс, Мириам Маргулис, Хьюго Джонстон-Барт, Жаклин Маккензи, Нэйтан Пейдж, Йен Блисс, Джон Уотерс
Описание: Освободив молодую бедуинскую девушку Ширин из несправедливого заключения в Иерусалимской тюрьме, леди-детектив Фрайни Фишер берется за разгадку тайны прошлого, касающуюся бесценных изумрудов, древних проклятий и правды о подозрительном исчезновении забытого племени Ширин. Британские аристократы, на жизни которых отразились печальные события Первой мировой войны в Палестине, также оказались втянутыми в эту тайну.-Тип релиза: BDRemux 1080p
Контейнер: MKV-Видео: AVC/H.264, 1920x1080, 22900 Kbps, 24.000 fps
Аудио 1: Русский | AC-3, 6 ch, 448 Kbps, 48.0 KHz
Аудио 2: Английский | DTS-HD MA, 6 ch, 2391 Kbps, 48.0 KHz, 16-bit (DTS Core: 5.1 / 48 kHz / 1509 kbps / 16-bit)
-

MediaInfo

Код:
General
Unique ID : 110235927031985219814653977271602422243 (0x52EEAAD2FB346567CB78705D18E2A1E3)
Complete name : /Volumes/Promise Pegasus/Miss.Fisher.and.the.Crypt.of.Tears.2020.BDRemux.1080p.pk.mkv
Format : Matroska
Format version : Version 4
File size : 18.2 GiB
Duration : 1h 41mn
Overall bit rate mode : Variable
Overall bit rate : 25.7 Mbps
Movie name : Miss Fisher and the Crypt of Tears 2020 BDRemux 1080p pk
Encoded date : UTC 2020-06-21 15:09:09
Writing application : mkvmerge v47.0.0 ('Black Flag') 64-bit
Writing library : libebml v1.3.10 + libmatroska v1.5.2
Cover : Yes
Attachments : cover.jpg
Video
ID : 1
Format : AVC
Format/Info : Advanced Video Codec
Format profile : High@L4.1
Format settings : CABAC / 3 Ref Frames
Format settings, CABAC : Yes
Format settings, ReFrames : 3 frames
Codec ID : V_MPEG4/ISO/AVC
Duration : 1h 41mn
Bit rate mode : Variable
Bit rate : 22.9 Mbps
Maximum bit rate : 40.0 Mbps
Width : 1 920 pixels
Height : 1 080 pixels
Display aspect ratio : 16:9
Frame rate mode : Constant
Frame rate : 24.000 fps
Color space : YUV
Chroma subsampling : 4:2:0
Bit depth : 8 bits
Scan type : Progressive
Bits/(Pixel*Frame) : 0.460
Stream size : 16.2 GiB (89%)
Writing library : x264 core 148 r2638 7599210
Encoding settings : cabac=1 / ref=4 / deblock=1:-1:-1 / analyse=0x3:0x133 / me=umh / subme=10 / psy=1 / psy_rd=1.00:0.15 / mixed_ref=1 / me_range=24 / chroma_me=1 / trellis=2 / 8x8dct=1 / cqm=0 / deadzone=21,11 / fast_pskip=1 / chroma_qp_offset=-3 / threads=12 / lookahead_threads=1 / sliced_threads=0 / slices=4 / nr=0 / decimate=1 / interlaced=0 / bluray_compat=1 / constrained_intra=0 / bframes=3 / b_pyramid=1 / b_adapt=2 / b_bias=0 / direct=3 / weightb=1 / open_gop=1 / weightp=1 / keyint=23 / keyint_min=1 / scenecut=40 / intra_refresh=0 / rc_lookahead=23 / rc=2pass / mbtree=1 / bitrate=22900 / ratetol=1.0 / qcomp=0.60 / qpmin=0 / qpmax=69 / qpstep=4 / cplxblur=20.0 / qblur=0.5 / vbv_maxrate=40000 / vbv_bufsize=30000 / nal_hrd=vbr / filler=0 / ip_ratio=1.40 / aq=1:1.00
Language : English
Default : Yes
Forced : No
Color range : Limited
Color primaries : BT.709
Transfer characteristics : BT.709
Matrix coefficients : BT.709
Audio #1
ID : 2
Format : AC-3
Format/Info : Audio Coding 3
Commercial name : Dolby Digital
Codec ID : A_AC3
Duration : 1h 41mn
Bit rate mode : Constant
Bit rate : 448 Kbps
Channel(s) : 6 channels
Channel layout : L R C LFE Ls Rs
Sampling rate : 48.0 KHz
Frame rate : 31.250 fps (1536 SPF)
Compression mode : Lossy
Stream size : 324 MiB (2%)
Title : Russian MVO ViruseProject
Language : Russian
Service kind : Complete Main
Default : Yes
Forced : No
Audio #2
ID : 3
Format : DTS XLL
Format/Info : Digital Theater Systems
Commercial name : DTS-HD Master Audio
Codec ID : A_DTS
Duration : 1h 41mn
Bit rate mode : Variable
Bit rate : 2 391 Kbps
Channel(s) : 6 channels
Channel layout : C L R Ls Rs LFE
Sampling rate : 48.0 KHz
Frame rate : 93.750 fps (512 SPF)
Bit depth : 16 bits
Compression mode : Lossless
Stream size : 1.69 GiB (9%)
Title : English Original
Language : English
Default : No
Forced : No
Text #1
ID : 4
Format : UTF-8
Codec ID : S_TEXT/UTF8
Codec ID/Info : UTF-8 Plain Text
Duration : 1h 10mn
Bit rate : 1 bps
Count of elements : 11
Stream size : 950 Bytes (0%)
Title : Russian forced
Language : Russian
Default : Yes
Forced : No
Text #2
ID : 5
Format : UTF-8
Codec ID : S_TEXT/UTF8
Codec ID/Info : UTF-8 Plain Text
Duration : 1h 35mn
Bit rate : 75 bps
Count of elements : 1072
Stream size : 52.4 KiB (0%)
Title : Russian full
Language : Russian
Default : No
Forced : No
Text #3
ID : 6
Format : UTF-8
Codec ID : S_TEXT/UTF8
Codec ID/Info : UTF-8 Plain Text
Duration : 1h 39mn
Bit rate : 45 bps
Count of elements : 1132
Stream size : 33.2 KiB (0%)
Title : English full
Language : English
Default : No
Forced : No
Menu
00:00:00.000 : en:Chapter 1
00:08:46.500 : en:Chapter 2
00:17:30.083 : en:Chapter 3
00:25:58.333 : en:Chapter 4
00:35:03.083 : en:Chapter 5
00:43:43.541 : en:Chapter 6
00:51:39.166 : en:Chapter 7
01:01:11.458 : en:Chapter 8
01:10:28.083 : en:Chapter 9
01:20:09.250 : en:Chapter 10
01:28:53.333 : en:Chapter 11
01:36:07.000 : en:Chapter 12

Скриншоты

Профиль [ЛС]
Показать сообщения:    

Текущее время: 09-Июл 01:43

Часовой пояс: UTC ± 0



Вы не можете начинать темы
Вы не можете отвечать на сообщения
Вы не можете редактировать свои сообщения
Вы не можете удалять свои сообщения
Вы не можете голосовать в опросах
Вы не можете прикреплять файлы к сообщениям
Вы не можете скачивать файлы