Статистика раздачи
Размер:  17,47 GB   |    Зарегистрирован:  1 месяц 8 дней   |    Скачан:  0 раз
DL-List: Нет

Полного источника не было: Никогда

 
     
 
 

MAGNAT ®

Пол:
Мужской
Стаж:
1 год 4 месяца
Сообщений:
8807

Принц города / Prince of the city
Страна: США
Студия: Orion Pictures Corporation
Жанр: драма, триллер
Год выпуска: 1981
Продолжительность: 02:47:21
Перевод: Профессиональный (двухголосый закадровый) - R5
Перевод 2: Авторский (одноголосый закадровый) - Алексей Михалёв
Субтитры: английские
Оригинальная аудиодорожка: английский
Режиссер: Сидни Люмет / Sidney Lumet
В ролях: Трит Уильямс, Джерри Орбак, Ричард Форонджи, Дон Биллет, Кенни Марино, Кармине Кариди, Тони Пейдж, Норман Паркер, Пол Роублинг, Боб Бэлабан, Джеймс Толкан, Стив Инвуд, Линдси Краус, Мэттью Лоранс, Тони Турко, Рональд Макконе, Рон Карабацос, Тони ДиБенедетто, Тони Мунафо, Роберт Кристиан, Ли Ричардсон, Лейн Смит, Космо Аллегретти, Майкл Беккет, Бёртон Коллинз, Генри Феррентино, Кармине Фореста, Конрад Фаукс, Питер Фридман, Питер Майкл Гец, Лэнс Хенриксен, Эдди Джонс, Дон Лесли, Дэна Лордж, Гарри Мэдсен, Э.Д. Миллер, Синтия Никсон, Рон Перкинс, Лайонел Пина, Хосе Анхел Сантана, Уолтер Брук, Ричард Костабайл, Питер Костаназа, Питер Гэннон, Алан Кинг, Илана Рэпп
Описание: Детектив Дэнни Чиелло из специального отряда по борьбе с наркотиками нью-йоркского департамента полиции — один из тех, кого называют Принцем Города.
Он — неприкасаемый элитный коп, профессионал, которому, как говорится, «море по колено». Дэнни знает о том, что многие из его коллег берут деньги, и решает сделать то, что обязан сделать любой честный служитель закона: рассказать правду. Но для этого ему придется предать своих друзей и напарников…
Тип релиза: WEB-DL 1080p
Контейнер: MKV
Видео: 14300 Кбит/сек, AVC 1920*1080 (16:9), 23,976 кадра/сек, CABAC
Аудио: Русский, 192 Кбит/сек, 48,0 КГц, 2 канала, AC-3 - R5
Аудио 2: Русский, 192 Кбит/сек, 48,0 КГц, 2 канала, AC-3 - Михалёв
Аудио 3: Английский, 224 Кбит/сек, 48,0 КГц, 2 канала, E-AC-3
Формат субтитров: softsub (SRT)

MediaInfo

Общее
Уникальный идентификатор : 247621004817484023420417083223216631055 (0xBA4A12203162A6BDFFCCDD80BE0A2D0F)
Полное имя : C:\MONAR\Художественные фильмы\Зарубежное кино\Принц города (1981) WEB-DL 1080p.mkv
Формат : Matroska
Версия формата : Version 4
Размер файла : 17,5 Гбайт
Продолжительность : 2 ч. 47 м.
Режим общего битрейта : Переменный
Общий поток : 14,9 Мбит/сек
Название фильма : Prince of the сity (1981)
Дата кодирования : UTC 2020-06-21 18:01:03
Программа кодирования : mkvmerge v46.0.0 ('No Deeper Escape') 64-bit
Библиотека кодирования : libebml v1.3.10 + libmatroska v1.5.2
Видео
Идентификатор : 1
Формат : AVC
Формат/Информация : Advanced Video Codec
Профиль формата : High@L4
Настройки формата : CABAC / 4 Ref Frames
Параметр CABAC формата : Да
Параметр RefFrames формата : 4 кадра
Идентификатор кодека : V_MPEG4/ISO/AVC
Продолжительность : 2 ч. 47 м.
Вид битрейта : Переменный
Битрейт : 14,3 Мбит/сек
Максимальный битрейт : 15,0 Мбит/сек
Ширина : 1 920 пикселей
Высота : 1 080 пикселей
Соотношение сторон : 16:9
Режим частоты кадров : Постоянный
Частота кадров : 23,976 (24000/1001) кадра/сек
Цветовое пространство : YUV
Субдискретизация насыщенности : 4:2:0
Битовая глубина : 8 бит
Тип развёртки : Прогрессивная
Бит/(Пиксели*Кадры) : 0.288
Размер потока : 16,8 Гбайт (96%)
Библиотека кодирования : x264 core 148 r2623 d5b2374
Настройки программы : cabac=1 / ref=4 / deblock=1:-1:-1 / analyse=0x3:0x133 / me=umh / subme=9 / psy=1 / psy_rd=1.00:0.15 / mixed_ref=1 / me_range=24 / chroma_me=1 / trellis=2 / 8x8dct=1 / cqm=0 / deadzone=21,11 / fast_pskip=1 / chroma_qp_offset=-3 / threads=34 / lookahead_threads=5 / sliced_threads=0 / nr=150 / decimate=1 / interlaced=0 / bluray_compat=0 / constrained_intra=0 / bframes=8 / b_pyramid=2 / b_adapt=2 / b_bias=0 / direct=3 / weightb=1 / open_gop=0 / weightp=2 / keyint=120 / keyint_min=61 / scenecut=0 / intra_refresh=0 / rc_lookahead=120 / rc=crf / mbtree=1 / crf=18.0 / qcomp=0.60 / qpmin=0 / qpmax=69 / qpstep=4 / vbv_maxrate=15000 / vbv_bufsize=31250 / crf_max=0.0 / nal_hrd=vbr / filler=0 / ip_ratio=1.40 / aq=3:1.00
Язык : English
Default : Да
Forced : Нет
Цветовой диапазон : Limited
Основные цвета : BT.709
Характеристики трансфера : BT.709
Коэффициенты матрицы : BT.709
Аудио #1
Идентификатор : 2
Формат : AC-3
Формат/Информация : Audio Coding 3
Коммерческое название : Dolby Digital
Идентификатор кодека : A_AC3
Продолжительность : 2 ч. 47 м.
Вид битрейта : Постоянный
Битрейт : 192 Кбит/сек
Каналы : 2 канала
Channel layout : L R
Частота : 48,0 КГц
Частота кадров : 31,250 кадров/сек (1536 SPF)
Метод сжатия : С потерями
Размер потока : 230 Мбайт (1%)
Заголовок : DVO
Язык : Russian
Service kind : Complete Main
Default : Да
Forced : Нет
Аудио #2
Идентификатор : 3
Формат : AC-3
Формат/Информация : Audio Coding 3
Коммерческое название : Dolby Digital
Идентификатор кодека : A_AC3
Продолжительность : 2 ч. 47 м.
Вид битрейта : Постоянный
Битрейт : 192 Кбит/сек
Каналы : 2 канала
Channel layout : L R
Частота : 48,0 КГц
Частота кадров : 31,250 кадров/сек (1536 SPF)
Метод сжатия : С потерями
Размер потока : 230 Мбайт (1%)
Заголовок : AVO
Язык : Russian
Service kind : Complete Main
Default : Нет
Forced : Нет
Аудио #3
Идентификатор : 4
Формат : E-AC-3
Формат/Информация : Enhanced AC-3
Коммерческое название : Dolby Digital Plus
Идентификатор кодека : A_EAC3
Продолжительность : 2 ч. 47 м.
Вид битрейта : Постоянный
Битрейт : 224 Кбит/сек
Каналы : 2 канала
Channel layout : L R
Частота : 48,0 КГц
Частота кадров : 31,250 кадров/сек (1536 SPF)
Метод сжатия : С потерями
Размер потока : 268 Мбайт (1%)
Заголовок : original
Язык : English
Service kind : Complete Main
Default : Нет
Forced : Нет
Текст
Идентификатор : 5
Формат : UTF-8
Идентификатор кодека : S_TEXT/UTF8
Идентификатор кодека/Информация : UTF-8 Plain Text
Продолжительность : 2 ч. 43 м.
Битрейт : 79 бит/сек
Count of elements : 2318
Размер потока : 94,9 Кбайт (0%)
Заголовок : full
Язык : English
Default : Нет
Forced : Нет
Меню
00:00:00.000 : en:The Siu
00:03:29.579 : en:3-O'clock Bust
00:07:28.158 : en:Chase Commission
00:10:28.660 : en:Raging Ronnie
00:15:00.434 : en:Sick Stoolie
00:22:28.296 : en:Danny's Breakdown
00:27:52.454 : en:My Action
00:30:46.919 : en:Breakup
00:32:22.890 : en:Danny's Three Things
00:37:27.787 : en:Wired
00:44:39.333 : en:Ambivalent Zeal
00:50:42.068 : en:Case Against Blomberg
00:53:08.806 : en:Be Sure He's a Rat
00:56:32.596 : en:Your Partners and Me
01:00:38.247 : en:On the Federal Side
01:06:12.381 : en:In a Jam
01:09:55.858 : en:Never My Backup Again
01:13:00.623 : en:Use a Public Phone
01:15:40.528 : en:Gino Mascone, Whore And Thief
01:18:50.671 : en:Take Me In
01:21:25.202 : en:Danny's Confession
01:26:11.081 : en:Cabin in the Catskills
01:30:30.168 : en:First in Prison
01:33:18.241 : en:One of Us
01:38:05.083 : en:Anybody Can Be Hit
01:42:58.121 : en:On the Stand
01:45:11.998 : en:King's Deposition
01:50:34.666 : en:Death and Dislocation
01:54:15.838 : en:Detecting Lies
01:59:13.552 : en:Alvarez on the System
02:02:40.103 : en:Nobody But Each Other
02:05:13.376 : en:Wanting to Admit Guilt
02:08:53.099 : en:Gus: Get Me for Assault
02:11:58.352 : en:Danny's Betrayal
02:17:53.378 : en:Choke On My Name
02:20:00.304 : en:Calling Old Friends
02:24:53.973 : en:Self Inflicted
02:30:08.571 : en:Gus Stays Out
02:33:06.163 : en:Debating Danny's Fate
02:37:15.783 : en:Some Area of Penance
02:42:28.316 : en:The Detective Ciello
02:44:43.283 : en:End Credits

Скриншоты

[cybertorrent.ru].t21184.torrent 
Торрент: Зарегистрирован [ 2020-06-30 18:17 ] · EE9904A4441FED94CC9E5304D71B4EBB8BD19D3C

Скачать .torrent

Скачать

22 KB

Статус: проверено
Скачан: 0 раз
Размер: 17,47 GB  ·  Тип торрента
terms.php
Профиль [ЛС]
Показать сообщения:    

Текущее время: 09-Авг 11:36

Часовой пояс: UTC ± 0



Вы не можете начинать темы
Вы не можете отвечать на сообщения
Вы не можете редактировать свои сообщения
Вы не можете удалять свои сообщения
Вы не можете голосовать в опросах
Вы не можете прикреплять файлы к сообщениям
Вы можете скачивать файлы