Статистика раздачи
Размер:  9,06 GB   |    Зарегистрирован:  1 месяц 8 дней   |    Скачан:  0 раз
DL-List: Нет

Полного источника не было: Никогда

 
     
 
 

MAGNAT ®

Пол:
Мужской
Стаж:
1 год 4 месяца
Сообщений:
8807

Пошли в тюрьму / Let's Go to Prison
Страна: США
Студия: Carsey-Werner Company, Strike Entertainment
Жанр: комедия, криминал
Год выпуска: 2006
Продолжительность: 01:29:26
Перевод: Профессиональный (дублированный) - Пифагор
Перевод: Профессиональный (многоголосый закадровый)
Перевод: Одноголосый закадровый - Михаил Яроцкий
Субтитры: английские
Оригинальная аудиодорожка: английский
Режиссер: Боб Оденкирк / Bob Odenkirk
В ролях: Дэкс Шепард, Уилл Арнетт, Чи МакБрайд, Дэвид Кёкнер, Дилан Бэйкер, Майкл Шеннон, Мигель Нино, Джей Уитэйкер, Эми Хилл, Дэвид Дарлоу, Джозеф Маркус, Мэри Сейбл, Сьюзэн Мессинг, Билл МакГоф, Боб Оденкёрк, Берт Матиас, Марк Мореттини
Описание: Джон Лишицки был ложно обвинён в совершении преступления и посажен в тюрьму. Освободившись, он хочет всеми силами отомстить судье, который впаял ему срок. Месть страшна: судейский сын Нельсон подставлен, обвинён в похищении золота и посажен в ту же тюрьму, где сидел Джон. Который, кстати, следует за своим врагом, чтобы убедиться в строгости наказания.--Тип релиза: WEB-DL 1080p
Контейнер: MKV
Видео: 1920x1080 (16:9), 23.976 fps, AVC, ~12.5Mbps, 0.251 bits/pixel
Аудио 1: Russian, 48.0 KHz, AC3, 2 ch, 192 kbps - DUB - студия «Пифагор»
Аудио 2: Russian, 48.0 KHz, AC3, 2 ch, 192 kbps - MVO
Аудио 3: Russian, 48.0 KHz, AC3, 6 ch, 448 kbps - VO Михаил Яроцкий
Аудио 4: English, 48.0 KHz, AC3+, 6 ch, 640 kbps - Original
Формат субтитров: softsub (SRT)

MediaInfo

Общее
Уникальный идентификатор : 218264644866678148863188875308532375584 (0xA4343DD53C7FE0EE9CB5C5B7DC862020)
Полное имя : X:\Lets.Go.to.Prison.2006.WEB-DL.1080p.mkv
Формат : Matroska
Версия формата : Version 4
Размер файла : 9,06 Гбайт
Продолжительность : 1 ч. 29 м.
Режим общего битрейта : Переменный
Общий поток : 14,5 Мбит/сек
Название фильма : Lets.Go.to.Prison.2006.1080p.AMZN.WEBRip_ALL.Films_teko
Дата кодирования : UTC 2020-06-21 15:17:15
Программа кодирования : mkvmerge v9.5.0 ('Quiet Fire') 64bit
Библиотека кодирования : libebml v1.3.4 + libmatroska v1.4.5
Обложка : Yes
Attachments : Let's.Go.to.Prison_Russian.Poster / Let's.Go.to.Prison_Unrated.Poster / Let's.Go.to.Prison_Unrated.DVD.Cover / Let's.Go.to.Prison_DVD.Cover / Let's.Go.to.Prison_Poster.1 / Let's.Go.to.Prison_Poster.2 / Let's.Go.to.Prison_Plakat / Let's.Go.to.Prison_Logo.jpg / Let's.Go.to.Prison_cd.print / Let's.Go.to.Prison_cd.print.unrated
Видео
Идентификатор : 1
Формат : AVC
Формат/Информация : Advanced Video Codec
Профиль формата : High@L4
Настройки формата : CABAC / 4 Ref Frames
Параметр CABAC формата : Да
Параметр RefFrames формата : 4 кадра
Идентификатор кодека : V_MPEG4/ISO/AVC
Продолжительность : 1 ч. 29 м.
Вид битрейта : Переменный
Битрейт : 12,8 Мбит/сек
Максимальный битрейт : 15,0 Мбит/сек
Ширина : 1920 пикселей
Высота : 1080 пикселей
Соотношение сторон : 16:9
Режим частоты кадров : Постоянный
Частота кадров : 23,976 (24000/1001) кадра/сек
Цветовое пространство : YUV
Субдискретизация насыщенности : 4:2:0
Битовая глубина : 8 бит
Тип развёртки : Прогрессивная
Бит/(Пиксели*Кадры) : 0.257
Размер потока : 7,98 Гбайт (88%)
Заголовок : Lets.Go.to.Prison.2006.1080p.AMZN.WEBRip
Язык : English
Default : Да
Forced : Нет
Цветовой диапазон : Limited
Основные цвета : BT.709
Характеристики трансфера : BT.709
Коэффициенты матрицы : BT.709
Аудио #1
Идентификатор : 2
Формат : AC-3
Формат/Информация : Audio Coding 3
Коммерческое название : Dolby Digital
Идентификатор кодека : A_AC3
Продолжительность : 1 ч. 29 м.
Вид битрейта : Постоянный
Битрейт : 448 Кбит/сек
Каналы : 2 канала
ChannelLayout : L R
Частота : 48,0 КГц
Частота кадров : 31,250 кадров/сек (1536 SPF)
Метод сжатия : С потерями
Размер потока : 287 Мбайт (3%)
Заголовок : DUB - студия «Пифагор» по заказу компании Universal
Язык : Russian
ServiceKind/String : Complete Main
Default : Да
Forced : Нет
Аудио #2
Идентификатор : 3
Формат : AC-3
Формат/Информация : Audio Coding 3
Коммерческое название : Dolby Digital
Идентификатор кодека : A_AC3
Продолжительность : 1 ч. 29 м.
Вид битрейта : Постоянный
Битрейт : 192 Кбит/сек
Каналы : 2 канала
ChannelLayout : L R
Частота : 48,0 КГц
Частота кадров : 31,250 кадров/сек (1536 SPF)
Метод сжатия : С потерями
Размер потока : 123 Мбайт (1%)
Заголовок : MVO
Язык : Russian
ServiceKind/String : Complete Main
Default : Нет
Forced : Нет
Аудио #3
Идентификатор : 4
Формат : AC-3
Формат/Информация : Audio Coding 3
Коммерческое название : Dolby Digital
Идентификатор кодека : A_AC3
Продолжительность : 1 ч. 29 м.
Вид битрейта : Постоянный
Битрейт : 448 Кбит/сек
Каналы : 6 каналов
ChannelLayout : L R C LFE Ls Rs
Частота : 48,0 КГц
Частота кадров : 31,250 кадров/сек (1536 SPF)
Метод сжатия : С потерями
Размер потока : 287 Мбайт (3%)
Заголовок : VO Михаил Яроцкий
Язык : Russian
ServiceKind/String : Complete Main
Default : Нет
Forced : Нет
Аудио #4
Идентификатор : 5
Формат : E-AC-3
Формат/Информация : Enhanced AC-3
Коммерческое название : Dolby Digital Plus
Идентификатор кодека : A_EAC3
Продолжительность : 1 ч. 29 м.
Вид битрейта : Постоянный
Битрейт : 640 Кбит/сек
Каналы : 6 каналов
ChannelLayout : L R C LFE Ls Rs
Частота : 48,0 КГц
Частота кадров : 31,250 кадров/сек (1536 SPF)
Метод сжатия : С потерями
Размер потока : 409 Мбайт (4%)
Заголовок : Original
Язык : English
ServiceKind/String : Complete Main
Default : Нет
Forced : Нет
Текст
Идентификатор : 6
Формат : UTF-8
Идентификатор кодека : S_TEXT/UTF8
Идентификатор кодека/Информация : UTF-8 Plain Text
Продолжительность : 1 ч. 28 м.
Битрейт : 69 бит/сек
ElementCount : 1580
Размер потока : 45,3 Кбайт (0%)
Заголовок : English
Язык : English
Default : Нет
Forced : Нет
[cybertorrent.ru].t21185.torrent 
Торрент: Зарегистрирован [ 2020-06-30 18:18 ] · C1CD3BA8CB857635E01E1BC5DB421589047DF1B2

Скачать .torrent

Скачать

23 KB

Статус: проверено
Скачан: 0 раз
Размер: 9,06 GB  ·  Тип торрента
terms.php
Профиль [ЛС]
Показать сообщения:    

Текущее время: 09-Авг 11:07

Часовой пояс: UTC ± 0



Вы не можете начинать темы
Вы не можете отвечать на сообщения
Вы не можете редактировать свои сообщения
Вы не можете удалять свои сообщения
Вы не можете голосовать в опросах
Вы не можете прикреплять файлы к сообщениям
Вы можете скачивать файлы