Статистика раздачи
Размер:  32,4 GB   |    Зарегистрирован:  1 месяц 8 дней   |    Скачан:  0 раз
DL-List: Нет

Полного источника не было: Никогда

 
     
 
 

MAGNAT ®

Пол:
Мужской
Стаж:
1 год 4 месяца
Сообщений:
8807

Отель «Гранд Будапешт» / The Grand Budapest Hotel- Страна: Германия, США
Студия: Fox Searchlight Pictures, Indian Paintbrush, Studio Babelsberg
Жанр: комедия, приключения, детектив, криминал
Год выпуска: 2014
Продолжительность: 01:39:56-Перевод 1: профессиональный (дублированный) - Невафильм
Перевод 2: профессиональный (одноголосый закадровый) - Юрий Сербин
Перевод 3: одноголосый закадровый - Алексей «Doctor Joker» Матвеев
Перевод 4: професійний дубльований - Postmodern
Субтитры 1-5: русские (форсированные, Наталия Грибешок, Doctor Joker, Notabenoid, Евгений Воронин)
Субтитры 6-7: украинские (форсовані, Владислав Бурмістров)
Субтитры 8: английские (Criterion)
Оригинальная аудиодорожка: английский, французский, немецкий-Режиссер: Уэс Андерсон / Wes Anderson
В ролях: Рэйф Файнс, Тони Револори, Сирша Ронан, Эдриан Броуди, Уиллем Дефо, Ф. Мюррэй Абрахам, Джуд Лоу, Эдвард Нортон, Джефф Голдблюм, Харви Кейтель и др.-Описание: Скитающийся по Европе в поисках вдохновения писатель останавливается в старинном отеле, стремительно приходящем в упадок. Знакомство с хозяином некогда пышной гостиницы открывает невероятную историю, развернувшуюся в стенах заведения сорок лет назад. Преклонных лет мадам, умирая, оставила в наследство консьержу отеля весьма дорогостоящую картину. Такое решение не удовлетворяет сына покойной, и он решает во что бы то ни стало сжить со света нежданного конкурента. По счастью, консьерж и его юный помощник-коридорный оказываются достаточно умны, чтобы не попасть в лапы злодея.-Тип релиза: BDRemux 1080p
Контейнер: MKV (Сэмпл)
Видео: MPEG-4 AVC / 1920x1080 / 36174 kbps / 23.976 fps / 1.37:1, 1.85:1, 2.39:1
Аудио 1: Russian DTS 5.1 / 768 kbps / 48 kHz / 24 bit / Dub (Невафильм)
Аудио 2: Russian DTS-HD MA 5.1 / 3380 kbps / 48 kHz / 24 bit / AVO (Сербин) ★★★
Аудио 3: Russian DTS-HD MA 5.1 / 3369 kbps / 48 kHz / 24 bit / VO (Doctor Joker) ★★★
Аудио 4: Ukrainian AC3 2.0 / 192 kbps / 48 kHz / Dub (Postmodern)
Аудио 5: English DTS-HD MA 5.1 / 3533 kbps / 48 kHz / 24 bit ★★★
Аудио 6: English AC3 2.0 / 192 kbps / 48 kHz / Commentary by Anderson, Roman Coppola, Kent Jones and Jeff Goldblum
Формат субтитров: softsub (SRT), prerendered (Blu-ray/PGS/SUP)
Навигация по главам: есть (подписаны)
★★★ : DTS Core 5.1 / 1509 kbps / 48 kHz / 24 bit

BDInfo

Disc Title: THE GRAND BUDAPEST HOTEL
Disc Label: THE_GRAND_BUDAPEST_HOTEL_VietHD
Disc Size: 49,100,950,926 bytes
Protection: AACS
Playlist: 00001.MPLS
Size: 31,514,443,776 bytes
Length: 1:39:55.614
Total Bitrate: 42.05 Mbps
Video: MPEG-4 AVC Video / 36174 kbps / 1080p / 23.976 fps / 16:9 / High Profile 4.1
Audio: English / DTS-HD Master Audio / 5.1 / 48 kHz / 3533 kbps / 24-bit (DTS Core: 5.1 / 48 kHz / 1509 kbps / 24-bit)
Audio: English / Dolby Digital Audio / 2.0 / 48 kHz / 192 kbps / DN -31dB
Subtitle: English / 58.963 kbps

MediaInfo

Общее
Уникальный идентификатор : 84200707125052299567158910539997151712 (0x3F587760AFCAD7CD0113CB4ECEF481E0)
Полное имя : The.Grand.Budapest.Hotel.2014.US.Criterion.Collection.BDRemux.1080p-rutracker.mkv
Формат : Matroska
Версия формата : Version 4
Размер файла : 32,4 Гбайт
Продолжительность : 1 ч. 39 м.
Режим общего битрейта : Переменный
Общий поток : 46,4 Мбит/сек
Название фильма : The Grand Budapest Hotel / 2014 / Criterion Collection / Spine #1025
Дата кодирования : UTC 2020-06-21 09:14:01
Программа кодирования : mkvmerge v47.0.0 ('Black Flag') 64-bit
Библиотека кодирования : libebml v1.3.10 + libmatroska v1.5.2
Обложка : Yes
Attachments : cover.jpg
Видео
Идентификатор : 1
Формат : AVC
Формат/Информация : Advanced Video Codec
Профиль формата : High@L4.1
Настройки формата : CABAC / 4 Ref Frames
Параметр CABAC формата : Да
Параметр RefFrames формата : 4 кадра
Параметр GOP формата : M=3, N=12
Идентификатор кодека : V_MPEG4/ISO/AVC
Продолжительность : 1 ч. 39 м.
Вид битрейта : Переменный
Битрейт : 34,9 Мбит/сек
Максимальный битрейт : 37,0 Мбит/сек
Ширина : 1 920 пикселей
Высота : 1 080 пикселей
Соотношение сторон : 16:9
Режим частоты кадров : Постоянный
Частота кадров : 23,976 (24000/1001) кадра/сек
Цветовое пространство : YUV
Субдискретизация насыщенности : 4:2:0
Битовая глубина : 8 бит
Тип развёртки : Прогрессивная
Бит/(Пиксели*Кадры) : 0.702
Размер потока : 24,4 Гбайт (75%)
Заголовок : The Grand Budapest Hotel / MPEG-4 AVC @ 36174 kbps
Язык : English
Default : Да
Forced : Нет
Аудио #1
Идентификатор : 2
Формат : DTS
Формат/Информация : Digital Theater Systems
Идентификатор кодека : A_DTS
Продолжительность : 1 ч. 39 м.
Вид битрейта : Постоянный
Битрейт : 768 Кбит/сек
Каналы : 6 каналов
Channel layout : C L R Ls Rs LFE
Частота : 48,0 КГц
Частота кадров : 93,750 кадра/сек (512 SPF)
Битовая глубина : 24 бит
Метод сжатия : С потерями
Размер потока : 549 Мбайт (2%)
Заголовок : Dub Невафильм / DTS 5.1 @ 768 kbps
Язык : Russian
Default : Да
Forced : Нет
Аудио #2
Идентификатор : 3
Формат : DTS XLL
Формат/Информация : Digital Theater Systems
Коммерческое название : DTS-HD Master Audio
Идентификатор кодека : A_DTS
Продолжительность : 1 ч. 39 м.
Вид битрейта : Переменный
Битрейт : 3 380 Кбит/сек
Каналы : 6 каналов
Channel layout : C L R Ls Rs LFE
Частота : 48,0 КГц
Частота кадров : 93,750 кадра/сек (512 SPF)
Битовая глубина : 24 бит
Метод сжатия : Без потерь
Размер потока : 2,36 Гбайт (7%)
Заголовок : AVO Сербин / DTS-HD MA 5.1 @ 3380 kbps
Язык : Russian
Default : Нет
Forced : Нет
Аудио #3
Идентификатор : 4
Формат : DTS XLL
Формат/Информация : Digital Theater Systems
Коммерческое название : DTS-HD Master Audio
Идентификатор кодека : A_DTS
Продолжительность : 1 ч. 39 м.
Вид битрейта : Переменный
Битрейт : 3 369 Кбит/сек
Каналы : 6 каналов
Channel layout : C L R Ls Rs LFE
Частота : 48,0 КГц
Частота кадров : 93,750 кадра/сек (512 SPF)
Битовая глубина : 24 бит
Метод сжатия : Без потерь
Размер потока : 2,35 Гбайт (7%)
Заголовок : VO Doctor Joker / DTS-HD MA 5.1 @ 3369 kbps
Язык : Russian
Default : Нет
Forced : Нет
Аудио #4
Идентификатор : 5
Формат : AC-3
Формат/Информация : Audio Coding 3
Коммерческое название : Dolby Digital
Идентификатор кодека : A_AC3
Продолжительность : 1 ч. 39 м.
Вид битрейта : Постоянный
Битрейт : 192 Кбит/сек
Каналы : 2 канала
Channel layout : L R
Частота : 48,0 КГц
Частота кадров : 31,250 кадров/сек (1536 SPF)
Метод сжатия : С потерями
Размер потока : 137 Мбайт (0%)
Заголовок : Dub Postmodern / AC3 2.0 @ 192 kbps
Язык : Ukrainian
Service kind : Complete Main
Default : Нет
Forced : Нет
Аудио #5
Идентификатор : 6
Формат : DTS XLL
Формат/Информация : Digital Theater Systems
Коммерческое название : DTS-HD Master Audio
Идентификатор кодека : A_DTS
Продолжительность : 1 ч. 39 м.
Вид битрейта : Переменный
Битрейт : 3 533 Кбит/сек
Каналы : 6 каналов
Channel layout : C L R Ls Rs LFE
Частота : 48,0 КГц
Частота кадров : 93,750 кадра/сек (512 SPF)
Битовая глубина : 24 бит
Метод сжатия : Без потерь
Размер потока : 2,47 Гбайт (8%)
Заголовок : DTS-HD MA 5.1 @ 3533 kbps
Язык : English
Default : Нет
Forced : Нет
Аудио #6
Идентификатор : 7
Формат : AC-3
Формат/Информация : Audio Coding 3
Коммерческое название : Dolby Digital
Идентификатор кодека : A_AC3
Продолжительность : 1 ч. 39 м.
Вид битрейта : Постоянный
Битрейт : 192 Кбит/сек
Каналы : 2 канала
Channel layout : L R
Частота : 48,0 КГц
Частота кадров : 31,250 кадров/сек (1536 SPF)
Метод сжатия : С потерями
Размер потока : 137 Мбайт (0%)
Заголовок : Commentary by Anderson, Roman Coppola, Kent Jones and Jeff Goldblum
Язык : English
Service kind : Complete Main
Default : Нет
Forced : Нет
Текст #1
Идентификатор : 8
Формат : UTF-8
Идентификатор кодека : S_TEXT/UTF8
Идентификатор кодека/Информация : UTF-8 Plain Text
Продолжительность : 1 ч. 31 м.
Битрейт : 3 бит/сек
Count of elements : 50
Размер потока : 2,13 Кбайт (0%)
Заголовок : Форсированные (дубляж)
Язык : Russian
Default : Да
Forced : Нет
Текст #2
Идентификатор : 9
Формат : UTF-8
Идентификатор кодека : S_TEXT/UTF8
Идентификатор кодека/Информация : UTF-8 Plain Text
Продолжительность : 1 ч. 39 м.
Битрейт : 106 бит/сек
Count of elements : 1260
Размер потока : 77,4 Кбайт (0%)
Заголовок : Наталия Грибешок
Язык : Russian
Default : Нет
Forced : Нет
Текст #3
Идентификатор : 10
Формат : UTF-8
Идентификатор кодека : S_TEXT/UTF8
Идентификатор кодека/Информация : UTF-8 Plain Text
Продолжительность : 1 ч. 34 м.
Битрейт : 125 бит/сек
Count of elements : 1368
Размер потока : 87,3 Кбайт (0%)
Заголовок : Doctor Joker
Язык : Russian
Default : Нет
Forced : Нет
Текст #4
Идентификатор : 11
Формат : UTF-8
Идентификатор кодека : S_TEXT/UTF8
Идентификатор кодека/Информация : UTF-8 Plain Text
Продолжительность : 1 ч. 33 м.
Битрейт : 118 бит/сек
Count of elements : 1251
Размер потока : 81,1 Кбайт (0%)
Заголовок : Notabenoid
Язык : Russian
Default : Нет
Forced : Нет
Текст #5
Идентификатор : 12
Формат : UTF-8
Идентификатор кодека : S_TEXT/UTF8
Идентификатор кодека/Информация : UTF-8 Plain Text
Продолжительность : 1 ч. 33 м.
Битрейт : 126 бит/сек
Count of elements : 1284
Размер потока : 86,3 Кбайт (0%)
Заголовок : Евгений Воронин
Язык : Russian
Default : Нет
Forced : Нет
Текст #6
Идентификатор : 13
Формат : UTF-8
Идентификатор кодека : S_TEXT/UTF8
Идентификатор кодека/Информация : UTF-8 Plain Text
Продолжительность : 6 м. 57 с.
Битрейт : 8 бит/сек
Count of elements : 8
Размер потока : 427 байт (0%)
Заголовок : Форсовані субтитри
Язык : Ukrainian
Default : Нет
Forced : Нет
Текст #7
Идентификатор : 14
Формат : UTF-8
Идентификатор кодека : S_TEXT/UTF8
Идентификатор кодека/Информация : UTF-8 Plain Text
Продолжительность : 1 ч. 39 м.
Битрейт : 114 бит/сек
Count of elements : 1277
Размер потока : 82,9 Кбайт (0%)
Заголовок : Владислав Бурмістров, DDS
Язык : Ukrainian
Default : Нет
Forced : Нет
Текст #8
Идентификатор : 15
Формат : UTF-8
Идентификатор кодека : S_TEXT/UTF8
Идентификатор кодека/Информация : UTF-8 Plain Text
Продолжительность : 1 ч. 31 м.
Битрейт : 76 бит/сек
Count of elements : 1424
Размер потока : 51,1 Кбайт (0%)
Заголовок : Criterion / SRT
Язык : English
Default : Нет
Forced : Нет
Текст #9
Идентификатор : 16
Формат : PGS
Идентификатор кодека : S_HDMV/PGS
Идентификатор кодека/Информация : Picture based subtitle format used on BDs/HD-DVDs
Продолжительность : 1 ч. 32 м.
Битрейт : 63,7 Кбит/сек
Count of elements : 2480
Размер потока : 42,1 Мбайт (0%)
Заголовок : Criterion / PGS
Язык : English
Default : Нет
Forced : Нет
Меню
00:00:00.000 : en:Old Lutz Cemetery
00:01:49.651 : en:Introduction by the Author
00:02:57.052 : en:Mr. Moustafa
00:09:20.685 : en:M. Gustave
00:14:18.357 : en:Junior Lobby Boy in Training
00:17:43.813 : en:Madame C.V.D.u.T.
00:23:09.972 : en:Last Will and Testament
00:29:55.419 : en:"Boy with Apple"
00:32:12.931 : en:A Solemn Blood-pact
00:35:52.817 : en:Check-point 19 Criminal Internment Camp
00:41:33.991 : en:Pinky, Günther, Wolf, and Ludwig
00:45:23.930 : en:Deputy Vilmos Kovacs
00:55:02.049 : en:A Peculiar, Last-minute Notice
01:02:56.690 : en:The Society of the Crossed Keys
01:09:49.727 : en:From Äugenzburg to Zilchbrück
01:20:48.969 : en:The Second Copy of the Second Will
01:28:30.514 : en:One from the East, and One from the West
01:30:50.987 : en:Common Property

Скриншоты


[cybertorrent.ru].t21186.torrent 
Торрент: Зарегистрирован [ 2020-06-30 18:19 ] · 25902456E243D11FE2ACC39C475D3322CD6FDA65

Скачать .torrent

Скачать

82 KB

Статус: проверено
Скачан: 0 раз
Размер: 32,4 GB  ·  Тип торрента
terms.php
Профиль [ЛС]
Показать сообщения:    

Текущее время: 09-Авг 10:43

Часовой пояс: UTC ± 0



Вы не можете начинать темы
Вы не можете отвечать на сообщения
Вы не можете редактировать свои сообщения
Вы не можете удалять свои сообщения
Вы не можете голосовать в опросах
Вы не можете прикреплять файлы к сообщениям
Вы можете скачивать файлы