Статистика раздачи
Размер:  16,91 GB   |    Зарегистрирован:  1 месяц 8 дней   |    Скачан:  0 раз
DL-List: Нет

Полного источника не было: Никогда

 
     
 
 

MAGNAT ®

Пол:
Мужской
Стаж:
1 год 4 месяца
Сообщений:
8807

От заката до рассвета / From Dusk Till Dawn
ITA Transfer
Страна: США
Жанр: криминал, ужасы
Год выпуска: 1996
Продолжительность: 01:48:02
Перевод 1: Профессиональный (многоголосый закадровый) ВестВидео
Перевод 2: Одноголосый (закадровый) Дмитрий Пучков "Гоблин"
Перевод 4: Профессиональный (многоголосый закадровый) Киномания
Перевод 5: Профессиональный (многоголосый закадровый) ФорсМедиа
Перевод 6: Профессиональный (двухголосый закадровый) Градов, Маликова
Перевод 7: Профессиональный (двухголосый закадровый) Премьер ВидеоФильм
Перевод 8: Авторский (одноголосый закадровый) Живов
Перевод 9: Авторский (одноголосый закадровый) Гаврилов
Перевод 10: Авторский (одноголосый закадровый) Карцев
Перевод 11: Авторский (одноголосый закадровый) Немахов
Перевод 12: Одноголосый (закадровый) Яроцкий
Перевод 13: Одноголосый (закадровый) неизвестный
Субтитры: русские, русские (Гоблин), английские, английские SDH
Оригинальная аудиодорожка: английский
Режиссер: Роберт Родригес / Robert Rodriguez
В ролях: Джордж Клуни, Квентин Тарантино, Харви Кейтель, Джульетт Льюис, Эрнест Лю, Сальма Хайек, Чич Марин, Дэнни Трехо, Том Савини, Фред Уильямсон
Описание: Братья Сет и Ричард Гекко, ограбившие банк и убившие заложницу, намерены укрыться в одном из мексиканских штатов. Но для этого им нужно выбраться из Техаса, где на них охотятся полицейские и агенты ФБР. Поэтому, долго не раздумывая, они берут в заложники семью бывшего пастора Фуллера, встретившуюся им в отеле, и продолжают путь, спрятавшись в их фургоне. Вместе со своими пленниками братья Гекко пересекают мексиканскую границу и, радуясь, что оказались в безопасности, останавливаются в придорожном баре «От заката до рассвета». Однако вскоре выясняется, что радость их преждевременна: в этом заведении обосновалась вся кровососущая нечисть Мексики....
Тип релиза: BDRip 720p
Контейнер: MKV
Видео: AVC, 1280x692 [1,85:1], 24 fps, ~11 Mbps
Аудио 1: DTS 5.1, 48 kHz, 24 bit, 1509 kbps - MVO West Video
Аудио 2: DTS 5.1, 48 kHz, 24 bit, 1509 kbps - VO Дмитрий Пучков "Гоблин"
Аудио 3: DTS 5.1, 48 kHz, 24 bit, 1509 kbps - english
Отдельными файлами:
Аудио 4: AC3 5.1, 48 kHz, 16 bit, 384 kbps - MVO Киномания
Аудио 5: AC3 2.0, 48 kHz, 16 bit, 256 kbps - MVO ФорсМедиа
Аудио 6: AC3 5.1, 48 kHz, 16 bit, 384 kbps - DVO
Аудио 7: FLAC 2.0, 48 kHz, 16 bit, 749 kbps - DVO Премьер ВидеоФильм
Аудио 8: DTS 5.1, 48 kHz, 24 bit, 1509 kbps - AVO Юрий Живов
Аудио 9: DTS 5.1, 48 kHz, 24 bit, 755 kbps - AVO Андрей Гаврилов
Аудио 10: AC3 5.1, 48 kHz, 16 bit, 448 kbps - AVO Пётр Карцев
Аудио 11: AC3 5.1, 48 kHz, 16 bit, 448 kbps - AVO Юрий Немахов
Аудио 12: DTS 5.1, 48 kHz, 24 bit, 1509 kbps - VO Михаил Яроцкий "Киберпанк"
Аудио 13: AC3 2.0, 48 kHz, 16 bit, 192 kbps - VO неизвестный
Аудио 14: AC3 2.0, 48 kHz, 16 bit, 192 kbps - english, комментарии Квентина Тарантино и Роберта Родригеса
Формат субтитров: softsub (SRT)

MediaInfo

Общее
Уникальный идентификатор : 219604978039716444896207431029729021141 (0xA536615C477AD6EF72EB427A49E44CD5)
Полное имя : F:\From Dusk Till Dawn [BDRip 720p 1996]\From Dusk Till Dawn [BDRip 720p 1996].mkv
Формат : Matroska
Версия формата : Version 4
Размер файла : 11,8 Гбайт
Продолжительность : 1 ч. 48 м.
Общий поток : 15,6 Мбит/сек
Дата кодирования : UTC 2020-06-20 17:21:29
Программа кодирования : mkvmerge v19.0.0 ('Brave Captain') 32-bit
Библиотека кодирования : libebml v1.3.5 + libmatroska v1.4.8
Видео
Идентификатор : 1
Формат : AVC
Формат/Информация : Advanced Video Codec
Профиль формата : High@L4.1
Настройки формата : CABAC / 9 Ref Frames
Параметр CABAC формата : Да
Параметр RefFrames формата : 9 кадров
Идентификатор кодека : V_MPEG4/ISO/AVC
Продолжительность : 1 ч. 48 м.
Битрейт : 11,0 Мбит/сек
Ширина : 1280 пикселей
Высота : 692 пикселя
Соотношение сторон : 1,85:1
Режим частоты кадров : Постоянный
Частота кадров : 24,000 кадра/сек
Цветовое пространство : YUV
Субдискретизация насыщенности : 4:2:0
Битовая глубина : 8 бит
Тип развёртки : Прогрессивная
Бит/(Пиксели*Кадры) : 0.520
Размер потока : 8,34 Гбайт (71%)
Библиотека кодирования : x264 core 133 r2334 a3ac64b
Настройки программы : cabac=1 / ref=9 / deblock=1:-3:-3 / analyse=0x3:0x133 / me=tesa / subme=10 / psy=1 / psy_rd=1.05:0.00 / mixed_ref=1 / me_range=24 / chroma_me=1 / trellis=2 / 8x8dct=1 / cqm=0 / deadzone=21,11 / fast_pskip=0 / chroma_qp_offset=-2 / threads=12 / lookahead_threads=2 / sliced_threads=0 / nr=0 / decimate=0 / interlaced=0 / bluray_compat=0 / constrained_intra=0 / bframes=8 / b_pyramid=2 / b_adapt=2 / b_bias=0 / direct=3 / weightb=1 / open_gop=0 / weightp=2 / keyint=250 / keyint_min=24 / scenecut=40 / intra_refresh=0 / rc_lookahead=60 / rc=crf / mbtree=1 / crf=16.7 / qcomp=0.75 / qpmin=0 / qpmax=69 / qpstep=4 / vbv_maxrate=50000 / vbv_bufsize=62500 / crf_max=0.0 / nal_hrd=none / ip_ratio=1.25 / aq=1:0.75
Default : Да
Forced : Нет
Аудио #1
Идентификатор : 2
Формат : DTS
Формат/Информация : Digital Theater Systems
Идентификатор кодека : A_DTS
Продолжительность : 1 ч. 48 м.
Вид битрейта : Постоянный
Битрейт : 1510 Кбит/сек
Каналы : 6 каналов
ChannelLayout : C L R Ls Rs LFE
Частота : 48,0 КГц
Частота кадров : 93,750 кадра/сек (512 SPF)
Битовая глубина : 24 бит
Метод сжатия : С потерями
Размер потока : 1,14 Гбайт (10%)
Заголовок : MVO WestVideo
Язык : Russian
Default : Да
Forced : Нет
Аудио #2
Идентификатор : 3
Формат : DTS
Формат/Информация : Digital Theater Systems
Идентификатор кодека : A_DTS
Продолжительность : 1 ч. 48 м.
Вид битрейта : Постоянный
Битрейт : 1510 Кбит/сек
Каналы : 6 каналов
ChannelLayout : C L R Ls Rs LFE
Частота : 48,0 КГц
Частота кадров : 93,750 кадра/сек (512 SPF)
Битовая глубина : 24 бит
Метод сжатия : С потерями
Размер потока : 1,14 Гбайт (10%)
Заголовок : VO Goblin
Язык : Russian
Default : Нет
Forced : Нет
Аудио #3
Идентификатор : 4
Формат : DTS
Формат/Информация : Digital Theater Systems
Идентификатор кодека : A_DTS
Продолжительность : 1 ч. 48 м.
Вид битрейта : Постоянный
Битрейт : 1510 Кбит/сек
Каналы : 6 каналов
ChannelLayout : C L R Ls Rs LFE
Частота : 48,0 КГц
Частота кадров : 93,750 кадра/сек (512 SPF)
Битовая глубина : 24 бит
Метод сжатия : С потерями
Размер потока : 1,14 Гбайт (10%)
Язык : English
Default : Нет
Forced : Нет
Текст #1
Идентификатор : 5
Формат : UTF-8
Идентификатор кодека : S_TEXT/UTF8
Идентификатор кодека/Информация : UTF-8 Plain Text
Продолжительность : 1 ч. 40 м.
Битрейт : 74 бит/сек
ElementCount : 839
Размер потока : 54,7 Кбайт (0%)
Заголовок : WestVideo
Язык : Russian
Default : Нет
Forced : Нет
Текст #2
Идентификатор : 6
Формат : UTF-8
Идентификатор кодека : S_TEXT/UTF8
Идентификатор кодека/Информация : UTF-8 Plain Text
Продолжительность : 1 ч. 41 м.
Битрейт : 92 бит/сек
ElementCount : 990
Размер потока : 69,0 Кбайт (0%)
Заголовок : Goblin
Язык : Russian
Default : Нет
Forced : Нет
Текст #3
Идентификатор : 7
Формат : UTF-8
Идентификатор кодека : S_TEXT/UTF8
Идентификатор кодека/Информация : UTF-8 Plain Text
Продолжительность : 1 ч. 45 м.
Битрейт : 54 бит/сек
ElementCount : 1150
Размер потока : 42,0 Кбайт (0%)
Язык : English
Default : Нет
Forced : Нет
Меню
00:00:00.000 : en:Benny's World of Liquor
00:09:34.583 : en:Credit Sequence
00:11:34.958 : en:Gloria Hill, Hostage
00:17:18.375 : en:The Preacher
00:20:51.500 : en:Kelly Houge and Agent Chase
00:22:22.250 : en:The Body
00:25:09.333 : en:Creepy Guy
00:26:25.417 : en:Richie, Will You Do Me a Favor?
00:31:18.458 : en:Real Mean Motoscooters
00:35:20.500 : en:Dengue Woman
00:37:07.667 : en:Border Crossing
00:42:45.333 : en:Blood Brothers
00:44:25.292 : en:The Twister
00:54:24.000 : en:Santanico Pandemonium
00:59:19.333 : en:Back on the Clock
01:01:57.750 : en:Dinner Is Served
01:09:46.250 : en:The Dead Rise
01:19:45.000 : en:I Was in Nam
01:22:24.625 : en:Sex Machine
01:24:11.625 : en:Preacher and the Shotgun Cross
01:26:59.958 : en:Preparing for Battle
01:30:02.667 : en:Vampire Killers
01:32:25.958 : en:Rat
01:36:58.250 : en:Carlos
01:40:00.083 : en:Bastard
01:42:34.125 : en:End Titles

x264

x264 [information]: frame I: 1322 average QP: size 15,16: 163979
x264 [information]: frame P: 31995 QP average: 17.36 size: 77084
x264 [information]: frame B: average 122270 QP: size 18,73: 51266
x264 [information]: consecutive B frame: 1.9% 2.6% 7.8% 11.7% 14.7% 47.8% 7.8% 2.8% 3.0%
encoded 155587 frames, 2.97 frames per second, 11046.34 kb / s

Скриншоты

[cybertorrent.ru].t21187.torrent 
Торрент: Зарегистрирован [ 2020-06-30 18:20 ] · 0508A2B7276FC0B705CC7BF4A61C93DA0A74498E

Скачать .torrent

Скачать

44 KB

Статус: проверено
Скачан: 0 раз
Размер: 16,91 GB  ·  Тип торрента
terms.php
Профиль [ЛС]
Показать сообщения:    

Текущее время: 09-Авг 12:09

Часовой пояс: UTC ± 0



Вы не можете начинать темы
Вы не можете отвечать на сообщения
Вы не можете редактировать свои сообщения
Вы не можете удалять свои сообщения
Вы не можете голосовать в опросах
Вы не можете прикреплять файлы к сообщениям
Вы можете скачивать файлы