Статистика раздачи
Размер:  6,43 GB   |    Зарегистрирован:  1 месяц 8 дней   |    Скачан:  0 раз
DL-List: Нет

Полного источника не было: Никогда

 
     
 
 

MAGNAT ®

Пол:
Мужской
Стаж:
1 год 4 месяца
Сообщений:
8807

Вернись, Эудженио / Voltati Eugenio
Страна: Италия, Франция
Студия: Société des Etablissements L. Gaumont
Жанр: драма
Год выпуска: 1980
Продолжительность: 01:49:36
Перевод: Одноголосый закадровый Вячеслав Прошин
Субтитры: русские (Анатолий Горский), английские
Оригинальная аудиодорожка: итальянский
Режиссер: Луиджи Коменчини / Luigi Comencini
В ролях: Кароль Андре, Бернар Блие, Франческо Бонелли, Алессандро Бруццезе, Марио Дарданелли, Хосе Луис де Вильялонга, Далила Ди Лаззаро, Саверио Маркони, Дина Сассоли, Джизелла Софио

Описание: Десятилетний Эудженио - типичный "побочный продукт" легкомысленной связи. Его родители, Фернанда и Джанкарло, познакомились во время студенческой революции 1968 г. и, узнав о беременности Фернанды, наскоро поженились. Брак не сложился. Совершенно чужие друг другу люди вынуждены растить сына. Получается плохо - мальчик, растущий замкнутым и нервным, кочует из рук в руки. Его единственный друг - уличный мальчишка Гуэррино. Эудженио любит животных и изучает их повадки. Мальчик задаёт родителям "нескромные" вопросы и сам теряется в догадках, нужен ли он всем этим людям, проявляющим о нём формальную, показную заботу.
Тип релиза: BDRip 720p -
Контейнер: MKV
Видео: MPEG4 AVC Video, H264, 1.85:1, 1280x692, 24 fps, 7440 kbps
Аудио: Russian (AC3, 2 ch, 192 kbps, 16 bits, 48.0 KHz) - VO
Аудио 2: Italian (DTS, 6 ch, 768 kbps, 24 bits, 48.0 KHz) - оригинал
Формат субтитров: softsub (SRT)

MediaInfo

General
Unique ID : 244994657426095072686115235726050019557 (0xB8504133B4107E24AA1CFB247E9D48E5)
Complete name : J:\Voltati Eugenio 1980 BDRip 720p.mkv
Format : Matroska
Format version : Version 4 / Version 2
File size : 6.43 GiB
Duration : 1 h 49 min
Overall bit rate : 8 401 kb/s
Encoded date : UTC 2020-06-13 21:16:21
Writing application : mkvmerge v6.1.0 ('Old Devil') built on Mar 2 2013 14:32:37
Writing library : libebml v1.3.0 + libmatroska v1.4.0
Video
ID : 1
Format : AVC
Format/Info : Advanced Video Codec
Format profile : High@L4.1
Format settings : CABAC / 9 Ref Frames
Format settings, CABAC : Yes
Format settings, ReFrames : 9 frames
Codec ID : V_MPEG4/ISO/AVC
Duration : 1 h 49 min
Bit rate : 7 440 kb/s
Width : 1 280 pixels
Height : 692 pixels
Display aspect ratio : 1.85:1
Frame rate mode : Constant
Frame rate : 24.000 FPS
Color space : YUV
Chroma subsampling : 4:2:0
Bit depth : 8 bits
Scan type : Progressive
Bits/(Pixel*Frame) : 0.350
Stream size : 5.57 GiB (87%)
Writing library : x264 core 142 r2479 dd79a61
Encoding settings : cabac=1 / ref=9 / deblock=1:-2:-2 / analyse=0x3:0x133 / me=umh / subme=9 / psy=1 / psy_rd=1.00:0.00 / mixed_ref=1 / me_range=28 / chroma_me=1 / trellis=2 / 8x8dct=1 / cqm=0 / deadzone=21,11 / fast_pskip=0 / chroma_qp_offset=-2 / threads=18 / lookahead_threads=4 / sliced_threads=0 / nr=0 / decimate=1 / interlaced=0 / bluray_compat=0 / constrained_intra=0 / bframes=10 / b_pyramid=2 / b_adapt=2 / b_bias=0 / direct=3 / weightb=1 / open_gop=0 / weightp=2 / keyint=240 / keyint_min=24 / scenecut=40 / intra_refresh=0 / rc_lookahead=80 / rc=2pass / mbtree=1 / bitrate=7440 / ratetol=1.0 / qcomp=0.60 / qpmin=0 / qpmax=69 / qpstep=4 / cplxblur=20.0 / qblur=0.5 / vbv_maxrate=62500 / vbv_bufsize=78125 / nal_hrd=none / filler=0 / ip_ratio=1.40 / aq=1:1.00
Language : English
Default : Yes
Forced : No
Color range : Limited
Color primaries : BT.709
Transfer characteristics : BT.709
Matrix coefficients : BT.709
Audio #1
ID : 2
Format : AC-3
Format/Info : Audio Coding 3
Codec ID : A_AC3
Duration : 1 h 49 min
Bit rate mode : Constant
Bit rate : 192 kb/s
Channel(s) : 2 channels
Channel positions : Front: L R
Sampling rate : 48.0 kHz
Frame rate : 31.250 FPS (1536 SPF)
Bit depth : 16 bits
Compression mode : Lossy
Stream size : 151 MiB (2%)
Language : Russian
Service kind : Complete Main
Default : Yes
Forced : No
Audio #2
ID : 3
Format : DTS
Format/Info : Digital Theater Systems
Codec ID : A_DTS
Duration : 1 h 49 min
Bit rate mode : Constant
Bit rate : 768 kb/s
Channel(s) : 2 channels
Channel positions : Front: L R
Sampling rate : 48.0 kHz
Frame rate : 93.750 FPS (512 SPF)
Bit depth : 24 bits
Compression mode : Lossy
Stream size : 602 MiB (9%)
Language : Italian
Default : No
Forced : No
Text #1
ID : 4
Format : UTF-8
Codec ID : S_TEXT/UTF8
Codec ID/Info : UTF-8 Plain Text
Language : Russian
Default : No
Forced : No
Text #2
ID : 5
Format : UTF-8
Codec ID : S_TEXT/UTF8
Codec ID/Info : UTF-8 Plain Text
Language : English
Default : No
Forced : No
Menu
00:00:00.000 : :Chapter 1
00:09:21.042 : :Chapter 2
00:17:35.500 : :Chapter 3
00:29:16.375 : :Chapter 4
00:35:53.167 : :Chapter 5
00:45:25.042 : :Chapter 6
00:54:04.167 : :Chapter 7
01:03:23.000 : :Chapter 8
01:12:43.083 : :Chapter 9
01:21:29.417 : :Chapter 10
01:30:33.542 : :Chapter 11
01:41:21.875 : :Chapter 12

Скриншоты


[cybertorrent.ru].t21189.torrent 
Торрент: Зарегистрирован [ 2020-06-30 18:22 ] · 0FBBC42CD543B7D44DFD48C672E45E467CE09327

Скачать .torrent

Скачать

33 KB

Статус: проверено
Скачан: 0 раз
Размер: 6,43 GB  ·  Тип торрента
terms.php
Профиль [ЛС]
Показать сообщения:    

Текущее время: 09-Авг 11:13

Часовой пояс: UTC ± 0



Вы не можете начинать темы
Вы не можете отвечать на сообщения
Вы не можете редактировать свои сообщения
Вы не можете удалять свои сообщения
Вы не можете голосовать в опросах
Вы не можете прикреплять файлы к сообщениям
Вы можете скачивать файлы