Статистика раздачи
Размер:  22,43 GB   |    Зарегистрирован:  1 месяц 8 дней   |    Скачан:  0 раз
DL-List: Нет

Полного источника не было: Никогда

 
     
 
 

MAGNAT ®

Пол:
Мужской
Стаж:
1 год 4 месяца
Сообщений:
8807

Дыхание / Breath
Страна: Австралия
Жанр: Драма, мелодрама, спорт
Год выпуска: 2017
Продолжительность: 01:55:26
Перевод: Любительский (многоголосый закадровый) HDRezka Studio
Субтитры: Английские
Оригинальная аудиодорожка: Английский
Режиссер: Саймон Бейкер / Simon Baker
В ролях: Элизабет Дебики, Ричард Роксбург, Саймон Бэйкер, Рэйчел Блэйк, Яцек Коман, Меган Смарт, Самсон Култер, Бен Спенс, Миранда Франгоу, Брок Фитцджеральд
Описание: Фильм, основанный на одноимённом бестселлере Тима Уинтона. Австралия, 70-е годы ХХ столетия. Подросток Пайклет знакомится с белобрысым мальчишкой Луни, и вскоре ребята становятся лучшими друзьями. Вместе они катаются на велосипедах по округе, купаются в речке, проводят время на побережье, наблюдая за сёрферами на волнах океана. Мечтая так же покорять волны, Пайклет с другом принимаются за создание своих досок из пенопласта. Знакомство с матёрым сёрфером Сандо кардинально меняет жизнь друзей.
Тип релиза: BDRemux 1080p
Контейнер: MKV
Видео: MPEG-4 AVC, 1080p, 1920:1080 (16:9), 25444 kbps, 24.000 fps
Аудио 1: АС3, 6 ch, 48 kHz, 448 kbps, 16 bits Русский MVO HDRezka Studio
Аудио 2: DTS-HD MA, 6 ch, 48 kHz, 1922 kbps, 16-bit (DTS Core 6 ch, 48 kHz, 1509 kbps, 16-bit) Английский
Формат субтитров: SRT

MediaInfo

General
Unique ID : 45450078823289542182228445291299872124 (0x22315DE52AA008E6AD7A7D42A7621D7C)
Complete name : G:\Breath.2017.REMUX.mkv
Format : Matroska
Format version : Version 4
File size : 22.4 GiB
Duration : 1 h 55 min
Overall bit rate mode : Variable
Overall bit rate : 27.8 Mb/s
Encoded date : UTC 2020-06-20 05:31:38
Writing application : mkvmerge v20.0.0 ('I Am The Sun') 64-bit
Writing library : libebml v1.3.5 + libmatroska v1.4.8
Video
ID : 1
Format : AVC
Format/Info : Advanced Video Codec
Format profile : High@L4.1
Format settings : CABAC / 4 Ref Frames
Format settings, CABAC : Yes
Format settings, Reference frames : 4 frames
Format settings, GOP : M=3, N=12
Codec ID : V_MPEG4/ISO/AVC
Duration : 1 h 55 min
Bit rate mode : Variable
Bit rate : 25.4 Mb/s
Maximum bit rate : 38.0 Mb/s
Width : 1 920 pixels
Height : 1 080 pixels
Display aspect ratio : 16:9
Frame rate mode : Constant
Frame rate : 24.000 FPS
Color space : YUV
Chroma subsampling : 4:2:0
Bit depth : 8 bits
Scan type : Progressive
Bits/(Pixel*Frame) : 0.511
Stream size : 20.5 GiB (91%)
Language : English
Default : Yes
Forced : No
Audio #1
ID : 2
Format : AC-3
Format/Info : Audio Coding 3
Commercial name : Dolby Digital
Codec ID : A_AC3
Duration : 1 h 55 min
Bit rate mode : Constant
Bit rate : 448 kb/s
Channel(s) : 6 channels
Channel layout : L R C LFE Ls Rs
Sampling rate : 48.0 kHz
Frame rate : 31.250 FPS (1536 SPF)
Compression mode : Lossy
Stream size : 370 MiB (2%)
Title : MVO HDRezka Studio
Language : Russian
Service kind : Complete Main
Default : Yes
Forced : No
Audio #2
ID : 3
Format : DTS XLL
Format/Info : Digital Theater Systems
Commercial name : DTS-HD Master Audio
Codec ID : A_DTS
Duration : 1 h 55 min
Bit rate mode : Variable
Bit rate : 1 922 kb/s
Channel(s) : 6 channels
Channel layout : C L R Ls Rs LFE
Sampling rate : 48.0 kHz
Frame rate : 93.750 FPS (512 SPF)
Bit depth : 16 bits
Compression mode : Lossless
Stream size : 1.55 GiB (7%)
Language : English
Default : No
Forced : No
Text
ID : 4
Format : UTF-8
Codec ID : S_TEXT/UTF8
Codec ID/Info : UTF-8 Plain Text
Duration : 1 h 48 min
Bit rate : 35 b/s
Count of elements : 986
Stream size : 28.2 KiB (0%)
Language : English
Default : No
Forced : No
Menu
00:00:00.000 : :Chapter 01
00:06:47.333 : :Chapter 02
00:12:53.875 : :Chapter 03
00:19:03.125 : :Chapter 04
00:25:36.792 : :Chapter 05
00:29:57.417 : :Chapter 06
00:35:29.917 : :Chapter 07
00:42:44.333 : :Chapter 08
00:48:26.917 : :Chapter 09
00:54:06.917 : :Chapter 10
01:02:32.417 : :Chapter 11
01:09:21.250 : :Chapter 12
01:15:13.750 : :Chapter 13
01:22:16.542 : :Chapter 14
01:28:04.083 : :Chapter 15
01:34:28.000 : :Chapter 16
01:42:05.458 : :Chapter 17
01:49:31.833 : :Chapter 18
[cybertorrent.ru].t21190.torrent 
Торрент: Зарегистрирован [ 2020-06-30 18:22 ] · 94369A69CD37680D89804169F248BDED743D30E0

Скачать .torrent

Скачать

113 KB

Статус: проверено
Скачан: 0 раз
Размер: 22,43 GB  ·  Тип торрента
terms.php
Профиль [ЛС]
Показать сообщения:    

Текущее время: 09-Авг 11:17

Часовой пояс: UTC ± 0



Вы не можете начинать темы
Вы не можете отвечать на сообщения
Вы не можете редактировать свои сообщения
Вы не можете удалять свои сообщения
Вы не можете голосовать в опросах
Вы не можете прикреплять файлы к сообщениям
Вы можете скачивать файлы