Статистика раздачи
Размер:  5,25 GB   |    Зарегистрирован:  1 месяц 8 дней   |    Скачан:  0 раз
DL-List: Нет

Полного источника не было: Никогда

 
     
 
 

MAGNAT ®

Пол:
Мужской
Стаж:
1 год 4 месяца
Сообщений:
8807

Мисс Фрайни Фишер и гробница слёз / Miss Fisher and the Crypt of Tears
Страна: Австралия
Студия: Every Cloud Productions
Жанр: детектив, приключения
Год выпуска: 2020
Продолжительность: 01:41:06--Перевод: Любительский (многоголосый закадровый)
Субтитры: русские (форсированные, полные), английские
Оригинальная аудиодорожка: английская--Режиссер: Тони Тилс / Tony Tilse--В ролях: Эсси Дэвис, Эшли Каммингс, Жаклин Маккензи, Мириам Марголис, Хьюго Джонстон-Барт, Руперт Пенри-Джонс, Нэйтан Пейдж, Дэниэл Лапэйн, Энтони Шарп, Джон Уотерс--Описание: Освободив молодую бедуинскую девушку Ширин из несправедливого заключения в Иерусалимской тюрьме, леди-детектив Фрайни Фишер берется за разгадку тайны прошлого, касающуюся бесценных изумрудов, древних проклятий и правды о подозрительном исчезновении забытого племени Ширин. Британские аристократы, на жизни которых отразились печальные события Первой мировой войны в Палестине, также оказались втянутыми в эту тайну.--Доп. информация: Исходник скачан из сети.
Сохранена навигация по главам.
Русская дорожка из сети.
За русские субтитры спасибо porvaliparus-Тип релиза: BDRip 720p
Контейнер: MKV
Видео кодек: H.264
Аудио кодек: DTS, AC-3
Видео: MPEG4/AVC, 2.000, 24000 FPS, 1280x640p, 5479 kb/s
Аудио 1: Русский, AC-3, 48.0 kHz, 5.1, 448 kb/s - многоголосый закадровый ViruseProject
Аудио 2: Английский, DTS, 48.0 kHz, 5.1, 1509 kb/s, 16 bit
Формат субтитров: softsub (SRT)

MediaInfo

x264
x264 [info]: profile Progressive High, level 4.1, 4:2:0, 8-bit
x264 [info]: frame I:1051 Avg QP: 9.78 size:174597
x264 [info]: frame P:32946 Avg QP:13.04 size: 59934
x264 [info]: frame B:111605 Avg QP:14.96 size: 17895
x264 [info]: consecutive B-frames: 1.9% 2.5% 9.8% 33.0% 14.6% 24.2% 5.7% 4.3% 1.5% 0.5% 0.5% 0.7% 0.8%
x264 [info]: kb/s:5479.45
encoded 145602 frames, 23.77 fps, 5479.45 kb/s
Общее
Формат : Matroska
Версия формата : Version 4
Размер файла : 5,25 Гбайт
Продолжительность : 1 ч. 41 м.
Общий поток : 7 439 Кбит/сек
Название фильма : Miss.Fisher.and.the.Crypt.of.Tears.2020 - Rutracker
Дата кодирования : UTC 2020-06-20 18:44:38
Программа кодирования : mkvmerge v47.0.0 ('Black Flag') 64-bit
Библиотека кодирования : libebml v1.3.10 + libmatroska v1.5.2
Обложка : Yes
Attachments : cover.jpg
Видео
Идентификатор : 1
Формат : AVC
Формат/Информация : Advanced Video Codec
Профиль формата : High@L4.1
Настройки формата : CABAC / 10 Ref Frames
Параметр CABAC формата : Да
Параметр RefFrames формата : 10 кадров
Идентификатор кодека : V_MPEG4/ISO/AVC
Продолжительность : 1 ч. 41 м.
Битрейт : 5 479 Кбит/сек
Ширина : 1 280 пикселей
Высота : 640 пикселей
Соотношение сторон : 2,000
Режим частоты кадров : Постоянный
Частота кадров : 24,000 кадра/сек
Цветовое пространство : YUV
Субдискретизация насыщенности : 4:2:0
Битовая глубина : 8 бит
Тип развёртки : Прогрессивная
Бит/(Пиксели*Кадры) : 0.279
Размер потока : 3,87 Гбайт (74%)
Заголовок : Miss.Fisher.and.the.Crypt.of.Tears.2020 - ripped by <<LION1234>>
Библиотека кодирования : x264 core 157 r2969 d4099dd
Настройки программы : cabac=1 / ref=10 / deblock=1:-3:-3 / analyse=0x3:0x113 / me=umh / subme=10 / psy=1 / psy_rd=0.95:0.00 / mixed_ref=1 / me_range=32 / chroma_me=1 / trellis=2 / 8x8dct=1 / cqm=0 / deadzone=21,11 / fast_pskip=0 / chroma_qp_offset=-2 / threads=18 / lookahead_threads=4 / sliced_threads=0 / nr=0 / decimate=0 / interlaced=0 / bluray_compat=0 / constrained_intra=0 / bframes=12 / b_pyramid=2 / b_adapt=2 / b_bias=0 / direct=1 / weightb=1 / open_gop=0 / weightp=2 / keyint=240 / keyint_min=22 / scenecut=40 / intra_refresh=0 / rc_lookahead=40 / rc=crf / mbtree=1 / crf=13.2 / qcomp=0.67 / qpmin=0 / qpmax=69 / qpstep=4 / vbv_maxrate=62500 / vbv_bufsize=78125 / crf_max=0.0 / nal_hrd=none / filler=0 / ip_ratio=1.30 / aq=1:0.76
Default : Да
Forced : Нет
Аудио #1
Идентификатор : 2
Формат : AC-3
Формат/Информация : Audio Coding 3
Коммерческое название : Dolby Digital
Идентификатор кодека : A_AC3
Продолжительность : 1 ч. 41 м.
Вид битрейта : Постоянный
Битрейт : 448 Кбит/сек
Каналы : 6 каналов
Channel layout : L R C LFE Ls Rs
Частота : 48,0 КГц
Частота кадров : 31,250 кадров/сек (1536 SPF)
Метод сжатия : С потерями
Размер потока : 324 Мбайт (6%)
Заголовок : русский MVO ViruseProject
Язык : Russian
Service kind : Complete Main
Default : Да
Forced : Нет
Аудио #2
Идентификатор : 3
Формат : DTS
Формат/Информация : Digital Theater Systems
Идентификатор кодека : A_DTS
Продолжительность : 1 ч. 41 м.
Вид битрейта : Постоянный
Битрейт : 1 509 Кбит/сек
Каналы : 6 каналов
Channel layout : C L R Ls Rs LFE
Частота : 48,0 КГц
Частота кадров : 93,750 кадра/сек (512 SPF)
Битовая глубина : 16 бит
Метод сжатия : С потерями
Размер потока : 1,07 Гбайт (20%)
Заголовок : английский
Язык : English
Default : Нет
Forced : Нет
Текст #1
Идентификатор : 4
Формат : UTF-8
Идентификатор кодека : S_TEXT/UTF8
Идентификатор кодека/Информация : UTF-8 Plain Text
Продолжительность : 1 ч. 10 м.
Битрейт : 1 бит/сек
Count of elements : 11
Размер потока : 950 байт (0%)
Заголовок : русские (forced)
Язык : Russian
Default : Да
Forced : Нет
Текст #2
Идентификатор : 5
Формат : UTF-8
Идентификатор кодека : S_TEXT/UTF8
Идентификатор кодека/Информация : UTF-8 Plain Text
Продолжительность : 1 ч. 35 м.
Битрейт : 75 бит/сек
Count of elements : 1072
Размер потока : 52,4 Кбайт (0%)
Заголовок : русские полные
Язык : Russian
Default : Нет
Forced : Нет
Текст #3
Идентификатор : 6
Формат : UTF-8
Идентификатор кодека : S_TEXT/UTF8
Идентификатор кодека/Информация : UTF-8 Plain Text
Продолжительность : 1 ч. 39 м.
Битрейт : 45 бит/сек
Count of elements : 1132
Размер потока : 33,2 Кбайт (0%)
Заголовок : английские
Язык : English
Default : Нет
Forced : Нет
Меню
00:00:00.000 : :Chapter 01
00:08:46.500 : :Chapter 02
00:17:30.541 : :Chapter 03
00:25:58.333 : :Chapter 04
00:35:02.833 : :Chapter 05
00:43:43.291 : :Chapter 06
00:51:39.166 : :Chapter 07
01:01:11.458 : :Chapter 08
01:10:27.791 : :Chapter 09
01:20:09.500 : :Chapter 10
01:28:53.583 : :Chapter 11
01:36:07.416 : :Chapter 12

Скриншоты

[cybertorrent.ru].t21191.torrent 
Торрент: Зарегистрирован [ 2020-06-30 18:24 ] · BC83DB4031522B2B4E82207F07BDB4CE9F60F51E

Скачать .torrent

Скачать

14 KB

Статус: проверено
Скачан: 0 раз
Размер: 5,25 GB  ·  Тип торрента
terms.php
Профиль [ЛС]
Показать сообщения:    

Текущее время: 09-Авг 10:53

Часовой пояс: UTC ± 0



Вы не можете начинать темы
Вы не можете отвечать на сообщения
Вы не можете редактировать свои сообщения
Вы не можете удалять свои сообщения
Вы не можете голосовать в опросах
Вы не можете прикреплять файлы к сообщениям
Вы можете скачивать файлы