Статистика раздачи
Размер:  21,33 GB   |    Зарегистрирован:  1 месяц 8 дней   |    Скачан:  0 раз
DL-List: Нет

Полного источника не было: Никогда

 
     
 
 

MAGNAT ®

Пол:
Мужской
Стаж:
1 год 4 месяца
Сообщений:
8807

Балкон с видом на море / Un balcon sur la mer / A View of Love- Страна: Франция
Жанр: триллер, драма, мелодрама
Год выпуска: 2010
Продолжительность: 01:47:07
Перевод 1: профессиональный многоголосый закадровый Первый канал
Перевод 2: одноголосый закадровый Вячеслав Замез
Субтитры: русские Татьяна Фалимонова, английские, французские
Оригинальная аудиодорожка: французская-Режиссер: Николь Гарсия / Nicole Garcia
В ролях: Жан Дюжарден, Мари-Жозе Кроз, Тони Сервилло, Сандрин Киберлэн, Мишель Омон, Полин Белье, Жак Валлес, Клаудия Кардинале, Ромейн Мийо, Солен Форвейе-Описание:
Марк с семьей живет на юге Франции и работает агентом по недвижимости. Он прекрасный муж и заботливый отец. Но жизнь иногда вносит свои перемены, и однажды он встречает женщину, лицо которой удивительным образом напоминает ему Кати — его первую любовь, с которой он познакомился еще в детском возрасте, когда его семья жила в Алжире. Когда девушка таинственно исчезает, Марка охватывают сомнения: та ли это Кати, разбившая столько лет назад его сердце? И герой начинает свое собственное расследование.
Тип релиза: BDRemux 1080p
Контейнер: MKV
Видео: H.264/AVC, 1920x1080p (2.34:1), 24.000 fps, 23.0 Mbps
Аудио 1: Russian, AC3 2.0, 48 kHz, 192 kbps
Аудио 2: Russian, DTS 5.1, 48 kHz, 1509 kbps, 24 bits
Аудио 3: French, DTS-HD MA 5.1, 48 kHz, 3819 kbps, 24 bits (DTS Core: 5.1, 48 kHz, 1509 kbps, 24 bits)
Формат субтитров: softsub (SRT), PGS-

MediaInfo

General
Unique ID : 299358919713613298023129899760814987860 (0xE1366E46429F47A845223BDA89051A54)
Complete name : Un.Balcon.sur.la.Mer.2010.BDRemux.mkv
Format : Matroska
Format version : Version 4
File size : 21.3 GiB
Duration : 1 h 47 min
Overall bit rate mode : Variable
Overall bit rate : 28.5 Mb/s
Movie name : Un balcon sur la mer (2010)
Encoded date : UTC 2020-06-18 17:36:26
Writing application : mkvmerge v45.0.0 ('Heaven in Pennies') 64-bit
Writing library : libebml v1.3.10 + libmatroska v1.5.2
Video
ID : 1
Format : AVC
Format/Info : Advanced Video Codec
Format profile : High@L4.1
Format settings : CABAC / 4 Ref Frames
Format settings, CABAC : Yes
Format settings, Reference fra : 4 frames
Codec ID : V_MPEG4/ISO/AVC
Duration : 1 h 47 min
Bit rate mode : Variable
Bit rate : 23.0 Mb/s
Maximum bit rate : 36.0 Mb/s
Width : 1 920 pixels
Height : 1 080 pixels
Display aspect ratio : 16:9
Frame rate mode : Constant
Frame rate : 24.000 FPS
Standard : NTSC
Color space : YUV
Chroma subsampling : 4:2:0
Bit depth : 8 bits
Scan type : Progressive
Bits/(Pixel*Frame) : 0.461
Stream size : 17.2 GiB (81%)
Title : Un balcon sur la mer (2010)
Language : French
Default : Yes
Forced : No
Color range : Limited
Color primaries : BT.709
Transfer characteristics : BT.709
Matrix coefficients : BT.709
Audio #1
ID : 2
Format : AC-3
Format/Info : Audio Coding 3
Commercial name : Dolby Digital
Codec ID : A_AC3
Duration : 1 h 47 min
Bit rate mode : Constant
Bit rate : 192 kb/s
Channel(s) : 2 channels
Channel layout : L R
Sampling rate : 48.0 kHz
Frame rate : 31.250 FPS (1536 SPF)
Compression mode : Lossy
Stream size : 147 MiB (1%)
Title : Russian MVO (Первый канал)
Language : Russian
Service kind : Complete Main
Default : Yes
Forced : No
Audio #2
ID : 3
Format : DTS
Format/Info : Digital Theater Systems
Codec ID : A_DTS
Duration : 1 h 47 min
Bit rate mode : Constant
Bit rate : 1 509 kb/s
Channel(s) : 6 channels
Channel layout : C L R Ls Rs LFE
Sampling rate : 48.0 kHz
Frame rate : 93.750 FPS (512 SPF)
Bit depth : 24 bits
Compression mode : Lossy
Stream size : 1.13 GiB (5%)
Title : Russian VO (Вячеслав Замез)
Language : Russian
Default : No
Forced : No
Audio #3
ID : 4
Format : DTS XLL
Format/Info : Digital Theater Systems
Commercial name : DTS-HD Master Audio
Codec ID : A_DTS
Duration : 1 h 47 min
Bit rate mode : Variable
Bit rate : 3 819 kb/s
Channel(s) : 6 channels
Channel layout : C L R Ls Rs LFE
Sampling rate : 48.0 kHz
Frame rate : 93.750 FPS (512 SPF)
Bit depth : 24 bits
Compression mode : Lossless
Stream size : 2.86 GiB (13%)
Title : French
Language : French
Default : No
Forced : No
Text #1
ID : 5
Format : UTF-8
Codec ID : S_TEXT/UTF8
Codec ID/Info : UTF-8 Plain Text
Duration : 1 h 41 min
Bit rate : 65 b/s
Count of elements : 1101
Stream size : 48.5 KiB (0%)
Title : Russian (Татьяна Фалимонова)
Language : Russian
Default : No
Forced : No
Text #2
ID : 6
Format : UTF-8
Codec ID : S_TEXT/UTF8
Codec ID/Info : UTF-8 Plain Text
Duration : 1 h 44 min
Bit rate : 34 b/s
Count of elements : 1102
Stream size : 26.5 KiB (0%)
Title : English (C.M.C.)
Language : English
Default : No
Forced : No
Text #3
ID : 7
Format : PGS
Muxing mode : zlib
Codec ID : S_HDMV/PGS
Codec ID/Info : Picture based subtitle format used on BDs/HD-DVDs
Duration : 1 h 44 min
Bit rate : 18.4 kb/s
Count of elements : 2204
Stream size : 13.7 MiB (0%)
Title : English PGS
Language : English
Default : No
Forced : No
Text #4
ID : 8
Format : PGS
Muxing mode : zlib
Codec ID : S_HDMV/PGS
Codec ID/Info : Picture based subtitle format used on BDs/HD-DVDs
Duration : 1 h 46 min
Bit rate : 33.9 kb/s
Count of elements : 2675
Stream size : 25.9 MiB (0%)
Title : French SDH PGS
Language : French
Default : No
Forced : No
Menu
00:00:00.000 : fr:Chapter 1
00:11:19.625 : fr:Chapter 2
00:20:17.750 : fr:Chapter 3
00:32:44.125 : fr:Chapter 4
00:42:16.000 : fr:Chapter 5
00:52:55.916 : fr:Chapter 6
01:01:44.625 : fr:Chapter 7
01:12:38.332 : fr:Chapter 8
01:24:50.500 : fr:Chapter 9
01:32:03.582 : fr:Chapter 10

Скриншоты


[cybertorrent.ru].t21192.torrent 
Торрент: Зарегистрирован [ 2020-06-30 18:24 ] · B80649920B122EC2A757163E031EA5A44AE8F08D

Скачать .torrent

Скачать

214 KB

Статус: проверено
Скачан: 0 раз
Размер: 21,33 GB  ·  Тип торрента
terms.php
Профиль [ЛС]
Показать сообщения:    

Текущее время: 09-Авг 12:20

Часовой пояс: UTC ± 0



Вы не можете начинать темы
Вы не можете отвечать на сообщения
Вы не можете редактировать свои сообщения
Вы не можете удалять свои сообщения
Вы не можете голосовать в опросах
Вы не можете прикреплять файлы к сообщениям
Вы можете скачивать файлы