Статистика раздачи
Размер:  8,32 GB   |    Зарегистрирован:  1 месяц 8 дней   |    Скачан:  0 раз
DL-List: Нет

Полного источника не было: Никогда

 
     
 
 

MAGNAT ®

Пол:
Мужской
Стаж:
1 год 4 месяца
Сообщений:
8807

Мисс Фрайни Фишер и гробница слёз / Miss Fisher and the Crypt of Tears
Страна: Австралия
Студия: Every Cloud Productions
Жанр: детектив, приключения
Год выпуска: 2020
Продолжительность: 01:41:06
Перевод: Любительский (многоголосый закадровый) ViruseProject
Субтитры: русские, английские
Оригинальная аудиодорожка: английский
Режиссер: Тони Тилс
В ролях: Эсси Дэвис, Эшли Каммингс, Жаклин Маккензи, Мириам Марголис, Хьюго Джонстон-Барт, Руперт Пенри-Джонс, Нэйтан Пейдж, Дэниэл Лапэйн, Энтони Шарп, Джон Уотерс и др.
Описание: После освобождения молодой девушки из несправедливого заточения в Иерусалиме Фрайни Фишер начинает распутывать тайну, касающуюся бесценных изумрудов, древних проклятий и мистического исчезновения целого племени Ширин.
Тип релиза: BDRip 1080p
Контейнер: MKV
Видео: AVC/H.264, 1920 x 960 (16:9), ~10700 Kbps, 24.000 FPS
Аудио 1: AC-3, 6 ch, 448 Kbps - русский
Аудио 2: AC-3, 6 ch, 640 Kbps - английский
Формат субтитров: softsub (SRT)

MediaInfo

General
Unique ID : 251192272314019542505703597602752193739 (0xBCF9DF3527919EA199868508C6E064CB)
Complete name : Miss Fisher & the Crypt of Tears.2020.BDRip.1080p.mkv
Format : Matroska
Format version : Version 4
File size : 8.32 GiB
Duration : 1 h 41 min
Overall bit rate : 11.8 Mb/s
Encoded date : UTC 2020-06-20 14:45:38
Writing application : mkvmerge v8.3.0 ('Over the Horizon') 32bit
Writing library : libebml v1.3.1 + libmatroska v1.4.2
Video
ID : 1
Format : AVC
Format/Info : Advanced Video Codec
Format profile : High@L4.1
Format settings : CABAC / 4 Ref Frames
Format settings, CABAC : Yes
Format settings, Reference : 4 frames
Codec ID : V_MPEG4/ISO/AVC
Duration : 1 h 41 min
Bit rate : 10.7 Mb/s
Width : 1 920 pixels
Height : 960 pixels
Display aspect ratio : 2.000
Frame rate mode : Constant
Frame rate : 24.000 FPS
Color space : YUV
Chroma subsampling : 4:2:0
Bit depth : 8 bits
Scan type : Progressive
Bits/(Pixel*Frame) : 0.242
Stream size : 7.55 GiB (91%)
Writing library : x264 core 157 r2958 57baac4
Encoding settings : cabac=1 / ref=4 / deblock=1:-3:-3 / analyse=0x3:0x113 / me=umh / subme=11 / psy=1 / psy_rd=1.00:0.00 / mixed_ref=1 / me_range=48 / chroma_me=1 / trellis=2 / 8x8dct=1 / cqm=0 / deadzone=21,11 / fast_pskip=1 / chroma_qp_offset=-2 / threads=18 / lookahead_threads=4 / sliced_threads=0 / nr=0 / decimate=1 / interlaced=0 / bluray_compat=0 / constrained_intra=0 / bframes=10 / b_pyramid=2 / b_adapt=2 / b_bias=0 / direct=3 / weightb=1 / open_gop=0 / weightp=2 / keyint=240 / keyint_min=24 / scenecut=40 / intra_refresh=0 / rc_lookahead=50 / rc=2pass / mbtree=1 / bitrate=10700 / ratetol=1.0 / qcomp=0.60 / qpmin=0 / qpmax=69 / qpstep=4 / cplxblur=20.0 / qblur=0.5 / vbv_maxrate=50000 / vbv_bufsize=60500 / nal_hrd=none / filler=0 / ip_ratio=1.40 / aq=1:1.00
Language : English
Default : Yes
Forced : No
Color range : Limited
Color primaries : BT.709
Transfer characteristics : BT.709
Matrix coefficients : BT.709
Audio #1
ID : 2
Format : AC-3
Format/Info : Audio Coding 3
Commercial name : Dolby Digital
Codec ID : A_AC3
Duration : 1 h 41 min
Bit rate mode : Constant
Bit rate : 448 kb/s
Channel(s) : 6 channels
Channel layout : L R C LFE Ls Rs
Sampling rate : 48.0 kHz
Frame rate : 31.250 FPS (1536 SPF)
Compression mode : Lossy
Stream size : 324 MiB (4%)
Title : ViruseProject
Language : Russian
Service kind : Complete Main
Default : Yes
Forced : No
Audio #2
ID : 3
Format : AC-3
Format/Info : Audio Coding 3
Commercial name : Dolby Digital
Codec ID : A_AC3
Duration : 1 h 41 min
Bit rate mode : Constant
Bit rate : 640 kb/s
Channel(s) : 6 channels
Channel layout : L R C LFE Ls Rs
Sampling rate : 48.0 kHz
Frame rate : 31.250 FPS (1536 SPF)
Compression mode : Lossy
Stream size : 463 MiB (5%)
Language : English
Service kind : Complete Main
Default : No
Forced : No
Text #1
ID : 4
Format : UTF-8
Codec ID : S_TEXT/UTF8
Codec ID/Info : UTF-8 Plain Text
Duration : 1 h 35 min
Bit rate : 75 b/s
Count of elements : 1072
Stream size : 52.4 KiB (0%)
Language : Russian
Default : No
Forced : No
Text #2
ID : 5
Format : UTF-8
Codec ID : S_TEXT/UTF8
Codec ID/Info : UTF-8 Plain Text
Duration : 1 h 39 min
Bit rate : 46 b/s
Count of elements : 1132
Stream size : 34.1 KiB (0%)
Language : English
Default : No
Forced : No
Menu
00:00:00.000 : en:Chapter 1
00:08:46.500 : en:Chapter 2
00:17:30.083 : en:Chapter 3
00:25:58.333 : en:Chapter 4
00:35:03.083 : en:Chapter 5
00:43:43.541 : en:Chapter 6
00:51:39.166 : en:Chapter 7
01:01:11.458 : en:Chapter 8
01:10:28.083 : en:Chapter 9
01:20:09.250 : en:Chapter 10
01:28:53.333 : en:Chapter 11
01:36:07.000 : en:Chapter 12

Скриншоты

[cybertorrent.ru].t21193.torrent 
Торрент: Зарегистрирован [ 2020-06-30 18:25 ] · 30023B27629EED1D5843301A0DEBD79831C2C726

Скачать .torrent

Скачать

21 KB

Статус: проверено
Скачан: 0 раз
Размер: 8,32 GB  ·  Тип торрента
terms.php
Профиль [ЛС]
Показать сообщения:    

Текущее время: 09-Авг 11:52

Часовой пояс: UTC ± 0



Вы не можете начинать темы
Вы не можете отвечать на сообщения
Вы не можете редактировать свои сообщения
Вы не можете удалять свои сообщения
Вы не можете голосовать в опросах
Вы не можете прикреплять файлы к сообщениям
Вы можете скачивать файлы