Статистика раздачи
Нет
 
     
 
 

MAGNAT ®

Пол:
Мужской
Стаж:
1 год 4 месяца
Сообщений:
8807

Евровидение: История огненной саги / Eurovision Song Contest: The Story of Fire Saga
-
Страна: США
Жанр: Комедия, музыка
Год выпуска: 2020
Продолжительность: 02:03:35-Перевод: Профессиональный (дублированный) | (Пифагор)
Cубтитры: Русские (Forced, Full), Английские (Forced, Full)
Оригинальная аудиодорожка: Английский-Режиссёр: Дэвид Добкин / David Dobkin
В ролях: Уилл Феррелл, Рэйчел МакАдамс, Натасия Деметриу, Пирс Броснан, Дэн Стивенс, Деми Ловато, Йоуханнес Хёйкьюр Йоуханнессон, Джэми Деметриу, Оулавюр Дарри Оулафссон, Melissanthi Mahut
Описание: Исландские музыканты Ларс Эрикссон и Сигрит Эриксдоттер мечтают победить на знаменитом международном конкурсе эстрадной песни. Они готовы идти до конца и для достижения заветной цели не остановятся ни перед чем.-Тип релиза: WEB-DL 720p
Контейнер: MKV-Видео: AVC/H.264, 1280x720, 4420 Kbps, 24.000 fps
Аудио 1: Русский | E-AC3, 6 ch, 640 Kbps, 48.0 KHz
Аудио 2: Английский | E-AC3, 6 ch, 640 Kbps, 48.0 KHz
Аудио 3: Английский | E-AC3, 6 ch, 640 Kbps, 48.0 KHz Audio Description
-

MediaInfo

Код:
General
Unique ID : 113647172896720379922555985804639203076 (0x557FA63AFE6D02291F9CE05806B5EF04)
Complete name : /Volumes/Promise Pegasus/Eurovision.Song.Contest.The.Story.of.Fire.Saga.WEB-DL.720p.pk.mkv
Format : Matroska
Format version : Version 4
File size : 5.39 GiB
Duration : 2h 3mn
Overall bit rate mode : Variable
Overall bit rate : 6 243 Kbps
Movie name : Eurovision Song Contest: The Story of Fire Saga WEB-DL 720p pk
Encoded date : UTC 2020-06-28 10:10:09
Writing application : mkvmerge v48.0.0 ('Fortress Around Your Heart') 64-bit
Writing library : libebml v1.4.0 + libmatroska v1.6.0
Video
ID : 1
Format : AVC
Format/Info : Advanced Video Codec
Format profile : Main@L3.1
Format settings : CABAC / 3 Ref Frames
Format settings, CABAC : Yes
Format settings, ReFrames : 3 frames
Codec ID : V_MPEG4/ISO/AVC
Duration : 2h 3mn
Bit rate mode : Variable
Bit rate : 4 420 Kbps
Maximum bit rate : 6 630 Kbps
Width : 1 280 pixels
Height : 720 pixels
Display aspect ratio : 16:9
Frame rate mode : Constant
Frame rate : 24.000 fps
Color space : YUV
Chroma subsampling : 4:2:0
Bit depth : 8 bits
Scan type : Progressive
Bits/(Pixel*Frame) : 0.200
Stream size : 3.73 GiB (69%)
Writing library : x264 core 148 r2717 0d2410d
Encoding settings : cabac=1 / ref=3 / deblock=1:0:0 / analyse=0x1:0x111 / me=umh / subme=10 / psy=1 / psy_rd=1.00:0.00 / mixed_ref=1 / me_range=24 / chroma_me=1 / trellis=2 / 8x8dct=0 / cqm=0 / deadzone=21,11 / fast_pskip=1 / chroma_qp_offset=-2 / threads=6 / lookahead_threads=1 / sliced_threads=0 / nr=0 / decimate=1 / interlaced=0 / bluray_compat=0 / stitchable=1 / constrained_intra=0 / bframes=2 / b_pyramid=0 / b_adapt=2 / b_bias=0 / direct=3 / weightb=1 / open_gop=0 / weightp=2 / keyint=250 / keyint_min=24 / scenecut=0 / intra_refresh=0 / rc_lookahead=48 / rc=2pass / mbtree=1 / bitrate=4420 / ratetol=1.0 / qcomp=0.50 / qpmin=6 / qpmax=51 / qpstep=4 / cplxblur=20.0 / qblur=0.5 / vbv_maxrate=6630 / vbv_bufsize=8840 / nal_hrd=vbr / filler=0 / ip_ratio=1.40 / aq=1:1.00
Language : English
Default : Yes
Forced : No
Audio #1
ID : 2
Format : E-AC-3
Format/Info : Enhanced AC-3
Commercial name : Dolby Digital Plus
Codec ID : A_EAC3
Duration : 2h 3mn
Bit rate mode : Constant
Bit rate : 640 Kbps
Channel(s) : 6 channels
Channel layout : L R C LFE Ls Rs
Sampling rate : 48.0 KHz
Frame rate : 31.250 fps (1536 SPF)
Compression mode : Lossy
Stream size : 566 MiB (10%)
Title : Russian Dub Пифагор
Language : Russian
Service kind : Complete Main
Default : Yes
Forced : No
Audio #2
ID : 3
Format : E-AC-3
Format/Info : Enhanced AC-3
Commercial name : Dolby Digital Plus
Codec ID : A_EAC3
Duration : 2h 3mn
Bit rate mode : Constant
Bit rate : 640 Kbps
Channel(s) : 6 channels
Channel layout : L R C LFE Ls Rs
Sampling rate : 48.0 KHz
Frame rate : 31.250 fps (1536 SPF)
Compression mode : Lossy
Stream size : 566 MiB (10%)
Title : English Original
Language : English
Service kind : Complete Main
Default : No
Forced : No
Audio #3
ID : 4
Format : E-AC-3
Format/Info : Enhanced AC-3
Commercial name : Dolby Digital Plus
Codec ID : A_EAC3
Duration : 2h 3mn
Bit rate mode : Constant
Bit rate : 640 Kbps
Channel(s) : 6 channels
Channel layout : L R C LFE Ls Rs
Sampling rate : 48.0 KHz
Frame rate : 31.250 fps (1536 SPF)
Compression mode : Lossy
Stream size : 566 MiB (10%)
Title : Audio Description
Language : English
Service kind : Complete Main
Default : No
Forced : No
Text #1
ID : 5
Format : UTF-8
Codec ID : S_TEXT/UTF8
Codec ID/Info : UTF-8 Plain Text
Duration : 1h 50mn
Bit rate : 11 bps
Count of elements : 205
Stream size : 9.40 KiB (0%)
Title : Russian forced
Language : Russian
Default : Yes
Forced : No
Text #2
ID : 6
Format : UTF-8
Codec ID : S_TEXT/UTF8
Codec ID/Info : UTF-8 Plain Text
Duration : 1h 54mn
Bit rate : 99 bps
Count of elements : 1837
Stream size : 83.1 KiB (0%)
Title : Russian full
Language : Russian
Default : No
Forced : No
Text #3
ID : 7
Format : UTF-8
Codec ID : S_TEXT/UTF8
Codec ID/Info : UTF-8 Plain Text
Duration : 1mn 10s
Bit rate : 30 bps
Count of elements : 10
Stream size : 268 Bytes (0%)
Title : English forced
Language : English
Default : No
Forced : No
Text #4
ID : 8
Format : UTF-8
Codec ID : S_TEXT/UTF8
Codec ID/Info : UTF-8 Plain Text
Duration : 1h 59mn
Bit rate : 81 bps
Count of elements : 2280
Stream size : 71.9 KiB (0%)
Title : English SDH
Language : English
Default : No
Forced : No

Скриншоты

Профиль [ЛС]
Показать сообщения:    

Текущее время: 09-Авг 11:23

Часовой пояс: UTC ± 0



Вы не можете начинать темы
Вы не можете отвечать на сообщения
Вы не можете редактировать свои сообщения
Вы не можете удалять свои сообщения
Вы не можете голосовать в опросах
Вы не можете прикреплять файлы к сообщениям
Вы не можете скачивать файлы