Статистика раздачи
Размер:  1,46 GB   |    Зарегистрирован:  1 месяц 3 дня   |    Скачан:  0 раз
DL-List: Нет

Полного источника не было: Никогда

 
     
 
 

MAGNAT ®

Пол:
Мужской
Стаж:
1 год 4 месяца
Сообщений:
8807

Отчаянная / Desperados
Страна: Аргентина, США
Жанр: мелодрама, комедия
Год выпуска: 2020
Продолжительность: 01:46:36-Перевод: Субтитры
Субтитры: русские, английские (forced, SDH)
Оригинальная аудиодорожка: английский-Режиссер:
Лорен Пальмиджано / Lauren Palmigiano-В ролях: Назим Педрад, Анна Кэмп, Сара Бёрнс, Хизер Грэм, Робби Амелл, Ламорн Моррис, Джессика Чаффин, Иззи Диаз, Мо Гаффни, Брайан Сэйфи-Описание: Уэсли наконец-то встретила идеального парня, но после приятной ночи тот внезапно пропадает и уже пять дней не отвечает. Хорошенько приняв на грудь в компании подруг, девушка отправляет парню ругательные сообщения, а потом выясняет, он попал в аварию в Мексике и лежит в больнице. Прихватив тех самых подружниц, Уэсли отправляется в Мексику, чтобы успеть стереть злополучные сообщения.
Качество видео: WEB-DLRip
Формат видео: AVI
Видео: 704x352 (2.00:1), 24.000 fps, XviD build 73 ~1563 kbps avg, 0.26 bit/pixel
Аудио: 48 kHz, AC3 Dolby Digital, 3/2 (L,C,R,l,r) + LFE ch, ~384 kbps-

Пример субтитров

Код:
16
00:01:21,166 --> 00:01:25,333
Не поймите неправильно, я за брак.
Из-за этого мы с бывшим разошлись.
17
00:01:25,416 --> 00:01:29,208
Я когда-нибудь расскажу вам об Эрике,
и вы о…еете.
18
00:01:29,291 --> 00:01:32,000
Он такое брехло.
19
00:01:32,083 --> 00:01:37,625
Ладно, давайте разберем такую ситуацию:
скажем, к вам придет ученица и скажет,
20
00:01:37,708 --> 00:01:40,875
что ее парень склоняет ее
к физической близости.
21
00:01:40,958 --> 00:01:44,916
Послать бы его на…
Я бы это прекратила.
22
00:01:45,000 --> 00:01:47,416
Я бы ей объяснила,
что парень и не нужен.
23
00:01:47,708 --> 00:01:50,791
Самой можно достичь желанной цели.
24
00:01:51,208 --> 00:01:53,541
- Духовной цели.
- Нет. Физиологической.
25
00:01:54,583 --> 00:01:55,416
Физи…
26
00:01:56,041 --> 00:01:57,625
- Мастурбация.
- Ну…
27
00:01:57,833 --> 00:02:00,791
- Я, конечно, учить не буду. Это бы…
- Слава Богу.
28
00:02:00,875 --> 00:02:02,708
Но она должна знать об этом.
29
00:02:02,791 --> 00:02:07,166
Может, с помощью душа или фигурки…
в форме совы.

MediaInfo

Код:
Формат : AVI
Формат/Информация : Audio Video Interleave
Размер файла : 1,46 Гбайт
Продолжительность : 1 ч. 46 м.
Общий поток : 1 957 Кбит/сек
Название фильма : Отчаянная_2020_WEB-DLRip
Программа кодирования : VirtualDubMod 1.5.10.3 | www.virtualdub-fr.org || (build 2550/release)
Авторское право : порошков
Видео
Идентификатор : 0
Формат : MPEG-4 Visual
Профиль формата : Advanced Simple@L5
Настройки формата : BVOP1 / Custom Matrix
Параметр BVOP формата : 1
Параметр QPel формата : Нет
Параметр GMC формата : Без точки перехода
Параметр матрицы формата : Выборочная
Идентификатор кодека : XVID
Идентификатор кодека/Подсказка : XviD
Продолжительность : 1 ч. 46 м.
Битрейт : 1 564 Кбит/сек
Ширина : 704 пикселя
Высота : 352 пикселя
Соотношение сторон : 2,000
Частота кадров : 24,000 кадра/сек
Цветовое пространство : YUV
Субдискретизация насыщенности : 4:2:0
Битовая глубина : 8 бит
Тип развёртки : Прогрессивная
Метод сжатия : С потерями
Бит/(Пиксели*Кадры) : 0.263
Размер потока : 1,16 Гбайт (80%)
Библиотека кодирования : XviD 73
Аудио
Идентификатор : 1
Формат : AC-3
Формат/Информация : Audio Coding 3
Коммерческое название : Dolby Digital
Идентификатор кодека : 2000
Продолжительность : 1 ч. 46 м.
Вид битрейта : Постоянный
Битрейт : 384 Кбит/сек
Каналы : 6 каналов
Channel layout : L R C LFE Ls Rs
Частота : 48,0 КГц
Частота кадров : 31,250 кадров/сек (1536 SPF)
Метод сжатия : С потерями
Размер потока : 293 Мбайт (20%)
Выравнивание : Разделение по промежуткам
Продолжительность промежутка : 42 мс. (1,00 видеокадр)
Время предзагрузки промежутка : 500 мс.
Service kind : Complete Main

Скриншоты


[cybertorrent.ru].t21196.torrent 
Торрент: Зарегистрирован [ 2020-07-05 16:43 ] · 0728DC9BEF73350A8A27B98CDDE33E30C86EEE53

Скачать .torrent

Скачать

15 KB

Статус: проверено
Скачан: 0 раз
Размер: 1,46 GB  ·  Тип торрента
terms.php
Профиль [ЛС]
Показать сообщения:    

Текущее время: 09-Авг 10:32

Часовой пояс: UTC ± 0



Вы не можете начинать темы
Вы не можете отвечать на сообщения
Вы не можете редактировать свои сообщения
Вы не можете удалять свои сообщения
Вы не можете голосовать в опросах
Вы не можете прикреплять файлы к сообщениям
Вы можете скачивать файлы