Статистика раздачи
Размер:  2,22 GB   |    Зарегистрирован:  3 месяца 6 дней   |    Скачан:  0 раз

Полного источника не было: Никогда

 
   
 
 

lopster ®

Пол:
Не указан
Стаж:
3 месяца 6 дней
Сообщений:
612

Деревня Хлюпово выходит из Союза
Жанр: комедия
Год выпуска: 1992
Продолжительность: 01:15:40
Режиссёр: Анатолий Вехотко
В ролях: Георгий Штиль, Сергей Исавнин, Анатолий Столбов, Любовь Тищенко, Михаил Солодовник, Игорь Ефимов, Нора Грякалова, Галина Сабурова, Екатерина Черняева, Александр Суснин, Борис Аракелов, Гелена Ивлиева, Николай Кузьмин, С(ергей?) Соколов, Ю. Поволяев(Вам знаком? Мне нет.) М.Семёнов (вообще в траурной рамке! Кто такой?)
Описание: Устав от постоянных ревизоров и наезжающих начальников, жители маленькой деревни Хлюпово решили отделиться от страны. Действие картины происходит во время августовского путча 1991 года, а некоторые персонажи сыграны двойниками известных политических деятелей.
Доп. информация:
Оцифровка VHS с записью эфира 1 канала Останкино из собственной коллекции. Где-то 1993-1995 год. Точнее не вспомнить.
С удивлением обнаружил, что на просторах интернета нет ничего, кроме упоминаний о фильме.
Впервые в сети!!!
Эксклюзив! Специально для всех! Берите! Смотрите! Ссылки на Hel_ka67 - не обязательны!
С днём Советской Армии и Военно-Морского флота, мужики!!!
Оцифровка производилась с помощью сего девайса, который работает без участия компьютера (сам он+видеомагнитофон+флэшка) и не имеет никаких настроек кодирования. Все претензии IconBITу.
Сэмпл: http://multi-up.com/1142044
Качество видео: TVRip
Формат видео: MP4
Видео: AVC, 720х576, 5:4, 50,000 кадров/сек, 4000 Кбит/сек
Аудио: AAC, 48,0 КГц, 192 Кбит/сек, 2 канала (псевдостерео)

MediaInfo

Общее
Полное имя : K:\torrents\...Деревня Хлюпово выходит из Союза\Деревня Хлюпово выходит из Союза.mp4
Формат : MPEG-4
Профиль формата : Base Media
Идентификатор кодека : isom (isom/iso2/avc1/mp41)
Размер файла : 2,22 Гбайт
Продолжительность : 1 ч. 15 м.
Общий поток : 4198 Кбит/сек
Программа кодирования : Lavf57.25.100
Видео
Идентификатор : 1
Формат : AVC
Формат/Информация : Advanced Video Codec
Профиль формата : Baseline@L3
Параметр CABAC формата : Нет
Параметр ReFrames формата : 1 кадр
Параметр GOP формата : M=1, N=100
Идентификатор кодека : avc1
Идентификатор кодека/Информация : Advanced Video Coding
Продолжительность : 1 ч. 15 м.
Битрейт : 4000 Кбит/сек
Ширина : 720 пикселей
Высота : 576 пикселей
Соотношение сторон : 5:4
Режим частоты кадров : Постоянный
Частота кадров : 50,000 кадров/сек
Цветовое пространство : YUV
Субдискретизация насыщенности : 4:2:0
Битовая глубина : 8 бит
Тип развёртки : Прогрессивная
Бит/(Пиксели*Кадры) : 0.193
Размер потока : 2,11 Гбайт (95%)
Аудио
Идентификатор : 2
Формат : AAC
Формат/Информация : Advanced Audio Codec
Профиль формата : LTP
Идентификатор кодека : 40
Продолжительность : 1 ч. 15 м.
Вид битрейта : Постоянный
Битрейт : 192 Кбит/сек
Каналы : 2 канала
Channel(s)_Original : 3 канала
Расположение каналов : Front: L C R
Частота : 64,0 КГц
Частота кадров : 62,500 кадра/сек (1024 spf)
Метод сжатия : С потерями
Размер потока : 102 Мбайт (5%)
Default : Да
Alternate group : 1

Скриншот c названием фильма

[cybertorrent.ru].t212.torrent 
Торрент: Зарегистрирован [ 2018-02-15 15:34 ] · 488A5B9CE5B1FF1F24ADBC266C483E036AFA085A

Скачать .torrent

Скачать

12 KB

Статус: проверено
Скачан: 0 раз
Размер: 2,22 GB
Профиль [ЛС]
Показать сообщения:    

Текущее время: 21-Май 19:02

Часовой пояс: UTC ± 0



Вы не можете начинать темы
Вы не можете отвечать на сообщения
Вы не можете редактировать свои сообщения
Вы не можете удалять свои сообщения
Вы не можете голосовать в опросах
Вы не можете прикреплять файлы к сообщениям
Вы можете скачивать файлы