Статистика раздачи
Размер:  17,8 GB   |    Зарегистрирован:  7 месяцев 8 дней   |    Скачан:  0 раз

Полного источника не было: Никогда

 
   
 
 

DR_KTO ®

Пол:
Не указан
Стаж:
7 месяцев 9 дней
Сообщений:
105

Симпсоны / The Simpsons- Страна: США
Год выпуска: 2014
Жанр: Мультсериал, комедия, сатира
Перевод: Профессиональный (многоголосый закадровый)
Продолжительность: ~22 минуты-Режиссёр: Мэтт Гроунинг / Matt Groening
Роли озвучивали: Дэн Кастелланета, Джули Кавнер, Нэнси Картрайт, Ярдли Смит, Гарри Ширер, Хэнк Азария, Памела Хейден, Тресс МакНилл, Карл Видерготт, Мэгги Росвэлл и другие.-Описание: Симпсоны живут в вымышленном городе Спрингфилд, со своим обществом и историей. Гомер - отец семейства, который даёт плохие советы и работает инспектором по безопасности на атомной электростанции; Мардж - любящая мать и жена, старается сохранить спокойствие в семье; Барт - 10 летний хулиган; Лиза - философский 8-летний ребёнок; и Мэгги - младенец, который общается посредством соски.-Все раздачи мультсериала / Сэмпл-Качество: WEB-DL 1080p
Формат: MKV
Видео:
* AVC, 1920x1080, 23,976 fps, ~5000 kbps (1-15 серии)
* AVC, 1916x1076, 23,976 fps, ~5000 kbps (16-22 серии)
Аудио Rus: AC3, 48Chz, 2 ch, 192 kbps (2x2)
Аудио Rus: AC3, 48Chz, 2 ch, 256 kbps (VO-production)
Аудио Eng: AC3, 48Chz, 6 ch, 384 kbps
Субтитры: русские, английские

Подробные технические данные

General
Unique ID : 204334270271791025906250137021076264209 (0x99B95956A0E40376B6FEA1FE52F4D511)
Complete name : C:\The Simpsons (Season 26) WEB-DL 1080p\01. Clown in the Dumps.mkv
Format : Matroska
Format version : Version 4 / Version 2
File size : 811 MiB
Duration : 21mn 12s
Overall bit rate : 5 348 Kbps
Encoded date : UTC 2016-02-28 17:16:34
Writing application : mkvmerge v8.9.0 ('Father Daughter') 64bit
Writing library : libebml v1.3.3 + libmatroska v1.4.4
Cover : Yes
Attachments : cover.png
Video
ID : 1
Format : AVC
Format/Info : Advanced Video Codec
Format profile : High@L4
Format settings, CABAC : Yes
Format settings, ReFrames : 4 frames
Codec ID : V_MPEG4/ISO/AVC
Duration : 21mn 12s
Bit rate : 4 511 Kbps
Width : 1 920 pixels
Height : 1 080 pixels
Display aspect ratio : 16:9
Frame rate mode : Constant
Frame rate : 23.976 (24000/1001) fps
Color space : YUV
Chroma subsampling : 4:2:0
Bit depth : 8 bits
Scan type : Progressive
Bits/(Pixel*Frame) : 0.091
Stream size : 684 MiB (84%)
Language : English
Default : Yes
Forced : No
Color range : Limited
Color primaries : BT.709
Transfer characteristics : BT.709
Matrix coefficients : BT.709
Audio #1
ID : 2
Format : AC-3
Format/Info : Audio Coding 3
Mode extension : CM (complete main)
Format settings, Endianness : Big
Codec ID : A_AC3
Duration : 21mn 11s
Bit rate mode : Constant
Bit rate : 192 Kbps
Channel(s) : 2 channels
Channel positions : Front: L R
Sampling rate : 48.0 KHz
Frame rate : 31.250 fps (1536 spf)
Compression mode : Lossy
Stream size : 29.1 MiB (4%)
Title : 2x2
Language : Russian
Default : Yes
Forced : No
Audio #2
ID : 3
Format : AC-3
Format/Info : Audio Coding 3
Mode extension : CM (complete main)
Format settings, Endianness : Big
Codec ID : A_AC3
Duration : 21mn 12s
Bit rate mode : Constant
Bit rate : 256 Kbps
Channel(s) : 2 channels
Channel positions : Front: L R
Sampling rate : 48.0 KHz
Frame rate : 31.250 fps (1536 spf)
Compression mode : Lossy
Stream size : 38.8 MiB (5%)
Title : VO-production
Language : Russian
Default : No
Forced : No
Audio #3
ID : 4
Format : AC-3
Format/Info : Audio Coding 3
Mode extension : CM (complete main)
Format settings, Endianness : Big
Codec ID : A_AC3
Duration : 21mn 12s
Bit rate mode : Constant
Bit rate : 384 Kbps
Channel(s) : 6 channels
Channel positions : Front: L C R, Side: L R, LFE
Sampling rate : 48.0 KHz
Frame rate : 31.250 fps (1536 spf)
Compression mode : Lossy
Stream size : 58.2 MiB (7%)
Language : English
Default : No
Forced : No
Text #1
ID : 5
Format : UTF-8
Codec ID : S_TEXT/UTF8
Codec ID/Info : UTF-8 Plain Text
Duration : 20mn 27s
Bit rate : 143 bps
Count of elements : 383
Stream size : 21.5 KiB (0%)
Language : Russian
Default : No
Forced : No
Text #2
ID : 6
Format : UTF-8
Codec ID : S_TEXT/UTF8
Codec ID/Info : UTF-8 Plain Text
Duration : 20mn 54s
Bit rate : 89 bps
Count of elements : 470
Stream size : 13.7 KiB (0%)
Language : English
Default : No
Forced : No

Скриншоты

Список серий

01. Клоун на свалке (Clown in the Dumps)
02. Крушение отношений (The Wreck of the Relationship)
03. Выдайте мне лицензию (Super Franchise Me)
04. Домик ужасов на дереве XXV (Treehouse of Horror XXV)
05. Обман противоположностей (Opposites A-Frack)
06. Симпсорама (Simpsorama)
07. В огне и смятении (Blazed and Confused)
08. Каверкрафт (Covercraft)
09. Я не буду дома к Рождеству (I Won't Be Home for Christmas)
10. Человек, который пришёл, чтобы быть ужином (The Man Who Came to Be Dinner)
11. Новый друг Барта (Bart's New Friend)
12. Маск, упавший на Землю (The Musk Who Fell to Earth)
13. Шагая широко и высоко (Walking Big & Tall)
14. Моя леди по тарифу (My Fare Lady)
15. Гид для принцессы (The Princess Guide)
16. Небесная полиция (Sky Police)
17. В ожидании Даффмэна (Waiting for Duffman)
18. Подглядывающая мамочка (Peeping Mom)
19. Дети постоянно ссорятся (The Kids Are All Fight)
20. Лети, дурачок (Let's Go Fly a Coot)
21. Хулигань-Ё (Bull-E)
22. Подвиг ботаников (Mathlete's Feat)

Внимание! Раздача ведётся путём добавления новых серий

Внимание! Раздача ведётся путём добавления новых серий; при каждом добавлении создаётся новый торрент. Чтобы начать докачку новой серии, пользователям необходимо сделать следующее:
(1) остановить скачивание,
(2) удалить старый торрент у себя из клиента (старые серии удалять не надо),
(3) скачать новый торрент и запустить его у себя в клиенте вместо старого, при этом указать клиенту путь в старую папку куда и должно происходить скачивание новых серий.
Ваш клиент при этом должен произвести хеширование (проверку) старой папки (если не производит сам - помогите ему сделать это), и будет докачивать только те серии, которых у вас ещё нет. Старые серии при этом не удаляются, а продолжают раздаваться!
Если вы уже удалили старые серии, то предотвратить повторную закачку старых серий можно, отжав галочку в соответствующих местах при запуске нового торрента. По возможности, желательно не удалять старые серии как можно дольше, чтобы релизёр не столько продолжал раздавать старые серии, а смог сконцентрироваться на новых.
[cybertorrent.ru].t2121.torrent 
Торрент: Зарегистрирован [ 2018-02-16 11:35 ] · 5467E1AA5EF21DF9D9E069029C5A0BC512C5476C

Скачать .torrent

Скачать

46 KB

Статус: проверено
Скачан: 0 раз
Размер: 17,8 GB
Профиль [ЛС]
Показать сообщения:    

Текущее время: 24-Сен 18:09

Часовой пояс: UTC ± 0



Вы не можете начинать темы
Вы не можете отвечать на сообщения
Вы не можете редактировать свои сообщения
Вы не можете удалять свои сообщения
Вы не можете голосовать в опросах
Вы не можете прикреплять файлы к сообщениям
Вы можете скачивать файлы
Torrents24.ru открытый BitTorrent Torrents24.pl открытый BitTorrent CyberTorrent.ru открытый BitTorrent BtList.ru рейтинг BitTorrent трекеров Яндекс.Метрика