Статистика раздачи
Размер:  2,19 GB   |    Зарегистрирован:  10 дней   |    Скачан:  0 раз
DL-List: Нет

Полного источника не было: Никогда

 
     
 
 

MAGNAT ®

Пол:
Мужской
Стаж:
1 год 4 месяца
Сообщений:
8807

Арканзас /Криминальные боссы / Arkansas Страна: США
Жанр: Триллер, драма, криминал
Год выпуска: 2020
Продолжительность: 01:56:56
Перевод: Любительский (многоголосый,закадровый) AlphaProject
Оригинальная аудиодорожка: английский
Субтитры: Русские,студия FOCS, НЕНОРМАТИВНАЯ ЛЕКСИКА!, английские.
Режиссёр: Кларк Дьюк / Clark Duke
В главных ролях: Винс Вон, Лиам Хемсворт, Джон Малкович, Вивика А. Фокс, Майкл Кеннет Уильямс, Кларк Дьюк, Брэд Уильям Хенке, Патрик Малдун, Иден Бролин, Джефф Чейз-Описание: Кайл и Суайн работают под крышей живущего в Арканзасе наркобарона по прозвищу Фрог, которого они никогда не видели. Когда одна из сделок идет не по плану, смертельно опасные последствия не заставляют себя ждать.- Рекламы нет.-Видео исходник: Arkansas.2020.1080p.BluRay.REMUX.AVC.DTS-HD.MA.5.1-FGT
Качество видео: BDRip
Формат видео: АVI
Видео: 720x304 (2.35:1),23.976 fps, XviD ~ 2278 kbps avg, 0.434 bit/pixel
Аудио 1: Rus 48 kHz, AC3 Dolby Digital, 2.0 ch, ~ 192 kbps
Аудио 2: Eng 48 kHz, AC3 Dolby Digital, 2.0 ch, ~ 192 kbps
Формат субтитров: softsub (SRT)-Доп. информация: Видео рип и работа со звуком[maksciganov]-Спасибо студии AlphaProject за перевод фильма.

MediaInfo

General
Complete name : Arkansas.2020_by_maksciganov.avi
Format : AVI
Format/Info : Audio Video Interleave
Format profile : OpenDML
File size : 2.19 GiB
Duration : 1h 56mn
Overall bit rate : 2 680 Kbps
Writing application : VirtualDubMod 1.5.10.3 | www.virtualdub-fr.org || (build 2550/release)
Writing library : VirtualDubMod build 2550/release
Video
ID : 0
Format : MPEG-4 Visual
Format profile : Advanced Simple@L5
Format settings, BVOP : 1
Format settings, QPel : No
Format settings, GMC : No warppoints
Format settings, Matrix : Default (MPEG)
Codec ID : XVID
Codec ID/Hint : XviD
Duration : 1h 56mn
Bit rate : 2 278 Kbps
Width : 720 pixels
Height : 304 pixels
Display aspect ratio : 2.35:1
Frame rate : 23.976 fps
Color space : YUV
Chroma subsampling : 4:2:0
Bit depth : 8 bits
Scan type : Progressive
Compression mode : Lossy
Bits/(Pixel*Frame) : 0.434
Stream size : 1.86 GiB (85%)
Writing library : XviD 1.2.1 (UTC 2008-12-04)
Audio #1
ID : 1
Format : AC-3
Format/Info : Audio Coding 3
Mode extension : CM (complete main)
Codec ID : 2000
Duration : 1h 56mn
Bit rate mode : Constant
Bit rate : 192 Kbps
Channel(s) : 2 channels
Channel positions : Front: L R
Sampling rate : 48.0 KHz
Bit depth : 16 bits
Compression mode : Lossy
Stream size : 161 MiB (7%)
Alignment : Split accross interleaves
Interleave, duration : 42 ms (1.00 video frame)
Interleave, preload duration : 500 ms
Audio #2
ID : 2
Format : AC-3
Format/Info : Audio Coding 3
Mode extension : CM (complete main)
Codec ID : 2000
Duration : 1h 56mn
Bit rate mode : Constant
Bit rate : 192 Kbps
Channel(s) : 2 channels
Channel positions : Front: L R
Sampling rate : 48.0 KHz
Bit depth : 16 bits
Compression mode : Lossy
Stream size : 161 MiB (7%)
Alignment : Split accross interleaves
Interleave, duration : 42 ms (1.00 video frame)
Interleave, preload duration : 500 ms

Скриншот c названием фильма

Скриншоты

[cybertorrent.ru].t21224.torrent 
Торрент: Зарегистрирован [ 2020-07-29 16:52 ] · A0966B0E9998457870918511A02C21922C9D004E

Скачать .torrent

Скачать

12 KB

Статус: проверено
Скачан: 0 раз
Размер: 2,19 GB  ·  Тип торрента
terms.php
Профиль [ЛС]
Показать сообщения:    

Текущее время: 09-Авг 10:57

Часовой пояс: UTC ± 0



Вы не можете начинать темы
Вы не можете отвечать на сообщения
Вы не можете редактировать свои сообщения
Вы не можете удалять свои сообщения
Вы не можете голосовать в опросах
Вы не можете прикреплять файлы к сообщениям
Вы можете скачивать файлы