Статистика раздачи
Нет
 
     
 
 

MAGNAT ®

Пол:
Мужской
Стаж:
1 год 5 месяцев
Сообщений:
8902

Ожидания шторма / Ofrenda a la tormenta
Страна: Испания, Германия
Жанр: триллер, криминал
Год выпуска: 2020
Продолжительность: 02:19:38
Перевод: Субтитры
Субтитры: русские (netflix), английские
Оригинальная аудиодорожка: испанский-Режиссер:
Фернандо Гонзалез Молина / Fernando González Molina-В ролях:
Марта Этура, Леонардо Сбаралья, Пако Тоус, Педро Касабланк, Ана Вахенер, Марта Ларральде, Альваро Сервантес, Эльвира Мингес, Иманоль Ариас, Суси Санчес-Описание:
Амайя расследует несколько подозрительных детских смертей и ужасных ритуалов. Тем временем окружающие ее люди рискуют получить серьезную опасность. Часть 3 в Базтанской трилогии.-Качество видео: WEB-DLRip
Формат видео: AVI
Видео: 720x304 (2.37:1), 24.000 fps, XviD build 73 ~1778 kbps avg, 0.34 bit/pixel
Аудио: 48 kHz, AC3 Dolby Digital, 3/2 (L,C,R,l,r) + LFE ch, ~448 kbps-

Пример субтитров

Код:
90
00:07:36,333 --> 00:07:38,041
И с отцом Херманом общалась.
91
00:07:38,125 --> 00:07:40,416
Мы решили, что в пятницу лучше всего.
92
00:07:40,500 --> 00:07:42,000
- «Мы решили»?
- Ну да.
93
00:07:42,083 --> 00:07:44,541
Чем скорее, тем лучше для всех.
94
00:07:44,625 --> 00:07:47,208
А вдруг она не мертва?
Тело ведь не нашли.
95
00:07:47,291 --> 00:07:48,333
Не говори ерунды.
96
00:07:48,416 --> 00:07:50,625
Ее плащ нашли месяц назад в реке.
97
00:07:50,708 --> 00:07:51,708
Это уловка!
98
00:07:51,791 --> 00:07:54,458
- И ничего не значит.
- Лучше поставить точку.
99
00:07:55,458 --> 00:07:56,583
И жить дальше.
100
00:07:59,250 --> 00:08:00,416
Нет, она не мертва.
101
00:08:00,500 --> 00:08:01,750
А куда тогда делась?
102
00:08:01,833 --> 00:08:04,500
Уплыла одна ночью, хотя кое-как ходила?
103
00:08:04,583 --> 00:08:06,500
Она ходила не кое-как!
104
00:08:06,583 --> 00:08:07,583
Да какая разница?

MediaInfo

Код:
Формат : AVI
Формат/Информация : Audio Video Interleave
Профиль формата : OpenDML
Размер файла : 2,18 Гбайт
Продолжительность : 2 ч. 19 м.
Общий поток : 2 233 Кбит/сек
Название фильма : Ожидания шторма_2020_WEB-DLRip
Программа кодирования : VirtualDubMod 1.5.10.3 | www.virtualdub-fr.org || (build 2550/release)
Авторское право : порошков
Видео
Идентификатор : 0
Формат : MPEG-4 Visual
Профиль формата : Advanced Simple@L5
Настройки формата : BVOP1 / Custom Matrix
Параметр BVOP формата : 1
Параметр QPel формата : Нет
Параметр GMC формата : Без точки перехода
Параметр матрицы формата : Выборочная
Идентификатор кодека : XVID
Идентификатор кодека/Подсказка : XviD
Продолжительность : 2 ч. 19 м.
Битрейт : 1 773 Кбит/сек
Ширина : 720 пикселей
Высота : 304 пикселя
Соотношение сторон : 2,35:1
Частота кадров : 24,000 кадра/сек
Цветовое пространство : YUV
Субдискретизация насыщенности : 4:2:0
Битовая глубина : 8 бит
Тип развёртки : Прогрессивная
Метод сжатия : С потерями
Бит/(Пиксели*Кадры) : 0.338
Размер потока : 1,73 Гбайт (79%)
Библиотека кодирования : XviD 73
Аудио
Идентификатор : 1
Формат : AC-3
Формат/Информация : Audio Coding 3
Коммерческое название : Dolby Digital
Идентификатор кодека : 2000
Продолжительность : 2 ч. 19 м.
Вид битрейта : Постоянный
Битрейт : 448 Кбит/сек
Каналы : 6 каналов
Channel layout : L R C LFE Ls Rs
Частота : 48,0 КГц
Частота кадров : 31,250 кадров/сек (1536 SPF)
Метод сжатия : С потерями
Размер потока : 447 Мбайт (20%)
Выравнивание : Разделение по промежуткам
Продолжительность промежутка : 42 мс. (1,00 видеокадр)
Время предзагрузки промежутка : 500 мс.
Service kind : Complete Main

Скриншоты


Профиль [ЛС]
Показать сообщения:    

Текущее время: 21-Сен 13:41

Часовой пояс: UTC ± 0



Вы не можете начинать темы
Вы не можете отвечать на сообщения
Вы не можете редактировать свои сообщения
Вы не можете удалять свои сообщения
Вы не можете голосовать в опросах
Вы не можете прикреплять файлы к сообщениям
Вы не можете скачивать файлы