Статистика раздачи
Размер:  1,46 GB   |    Зарегистрирован:  10 дней   |    Скачан:  0 раз
DL-List: Нет

Полного источника не было: Никогда

 
     
 
 

MAGNAT ®

Пол:
Мужской
Стаж:
1 год 4 месяца
Сообщений:
8807

Папина дочка / Le prince oublié
Страна: Франция, Бельгия
Жанр: фэнтези, комедия, приключения, семейный
Год выпуска: 2020
Продолжительность: 01:42:18-Перевод: Субтитры
Субтитры: русские, французские
Оригинальная аудиодорожка: французский-Режиссер:
Мишель Хазанавичус / Michel Hazanavicius-В ролях: Омар Си, Кейла Фала, Сара Гэй, Беренис Бежо, Франсуа Дамиенс, Неотис Ронзон, Филипп Вие, Филипп Юшан, Лионель Лаже, Филипп Эриссон-Описание: Перед сном Джиби всегда рассказывал своей маленькой дочери сказки. Вместе они придумали волшебный мир, где живут крошечные феи и величественные драконы, а папа всегда спасает принцессу-дочь от любых опасностей. Но однажды в их сказочном мире появляется новый принц - одноклассник повзрослевшей Софии, а Джиби отправляется в страшную страну Забытья. Джиби нужно выбраться из грустной сказки и найти способ остаться для своей дочери героем и в реальной жизни.-Качество видео: HDRip
Формат видео: AVI
Видео: 720x304 (2.37:1), 23.976 fps, XviD build 73 ~1587 kbps avg, 0.30 bit/pixel
Аудио: 48 kHz, AC3 Dolby Digital, 3/2 (L,C,R,l,r) + LFE ch, ~448 kbps-

Пример субтитров

Код:
24
00:03:12,110 --> 00:03:15,405
— А миндального не было?
— Ничего другого не было.
25
00:03:20,952 --> 00:03:21,953
Теперь ты.
26
00:03:22,120 --> 00:03:23,246
Кошка.
27
00:03:23,913 --> 00:03:25,665
Легко: "Там нет кота".
28
00:03:25,832 --> 00:03:27,584
"Кошка в горле"
29
00:03:27,750 --> 00:03:30,128
Хорошо сыграла. "Есть другие
кошки для порки".
30
00:03:30,295 --> 00:03:32,422
— А такая поговрка есть?
— Есть. Если я скажу тебе "уберись",
31
00:03:32,589 --> 00:03:35,842
ты можешь ответить:
"Нет, спасибо. Есть другие кошки для порки".
32
00:03:36,801 --> 00:03:37,886
Да ну.
33
00:03:40,722 --> 00:03:41,848
Твоя очередь.
34
00:03:42,557 --> 00:03:44,350
Я ем, подожди.
35
00:03:44,517 --> 00:03:47,020
Не можешь придумать.
36
00:03:48,271 --> 00:03:49,898
Не можешь придумать.
37
00:03:50,064 --> 00:03:51,149
Больше не знаешь.

MediaInfo

Код:
Формат : AVI
Формат/Информация : Audio Video Interleave
Размер файла : 1,46 Гбайт
Продолжительность : 1 ч. 42 м.
Общий поток : 2 045 Кбит/сек
Название фильма : Папина дочка_2020_HDRip
Программа кодирования : VirtualDubMod 1.5.10.3 | www.virtualdub-fr.org || (build 2550/release)
Авторское право : порошков
Видео
Идентификатор : 0
Формат : MPEG-4 Visual
Профиль формата : Advanced Simple@L5
Настройки формата : BVOP1 / Custom Matrix
Параметр BVOP формата : 1
Параметр QPel формата : Нет
Параметр GMC формата : Без точки перехода
Параметр матрицы формата : Выборочная
Идентификатор кодека : XVID
Идентификатор кодека/Подсказка : XviD
Продолжительность : 1 ч. 42 м.
Битрейт : 1 587 Кбит/сек
Ширина : 720 пикселей
Высота : 304 пикселя
Соотношение сторон : 2,35:1
Частота кадров : 23,976 (24000/1001) кадра/сек
Цветовое пространство : YUV
Субдискретизация насыщенности : 4:2:0
Битовая глубина : 8 бит
Тип развёртки : Прогрессивная
Метод сжатия : С потерями
Бит/(Пиксели*Кадры) : 0.302
Размер потока : 1,13 Гбайт (78%)
Библиотека кодирования : XviD 73
Аудио
Идентификатор : 1
Формат : AC-3
Формат/Информация : Audio Coding 3
Коммерческое название : Dolby Digital
Идентификатор кодека : 2000
Продолжительность : 1 ч. 42 м.
Вид битрейта : Постоянный
Битрейт : 448 Кбит/сек
Каналы : 6 каналов
Channel layout : L R C LFE Ls Rs
Частота : 48,0 КГц
Частота кадров : 31,250 кадров/сек (1536 SPF)
Метод сжатия : С потерями
Размер потока : 328 Мбайт (22%)
Выравнивание : Разделение по промежуткам
Продолжительность промежутка : 42 мс. (1,00 видеокадр)
Время предзагрузки промежутка : 500 мс.
Service kind : Complete Main

Скриншоты


[cybertorrent.ru].t21232.torrent 
Торрент: Зарегистрирован [ 2020-07-29 16:58 ] · D2C9EE925720B4040F91720B6BA5D224D28EF226

Скачать .torrent

Скачать

15 KB

Статус: проверено
Скачан: 0 раз
Размер: 1,46 GB  ·  Тип торрента
terms.php
Профиль [ЛС]
Показать сообщения:    

Текущее время: 09-Авг 11:39

Часовой пояс: UTC ± 0



Вы не можете начинать темы
Вы не можете отвечать на сообщения
Вы не можете редактировать свои сообщения
Вы не можете удалять свои сообщения
Вы не можете голосовать в опросах
Вы не можете прикреплять файлы к сообщениям
Вы можете скачивать файлы