Статистика раздачи
Размер:  2,19 GB   |    Зарегистрирован:  5 месяцев 4 дня   |    Скачан:  0 раз

Полного источника не было: Никогда

 
   
 
 

soda ®

Пол:
Не указан
Стаж:
5 месяцев 5 дней
Сообщений:
205

Чародеи
Жанр: комедия, мелодрама, мюзикл, фантастика
Год выпуска: 1982
Продолжительность: 02:26:37
Режиссёр: Константин Бромберг
Композитор: Евгений Крылатов
В ролях: Александра Яковлева, Александр Абдулов, Екатерина Васильева, Валентин Гафт, Валерий Золотухин, Эммануил Виторган, Михаил Светин, Роман Филиппов, Анна Ашимова, Семён Фарада, Евгения Абрамова, Ирина Бельгер, Вера Смоляницкая, Лилия Макеева, Леонид Харитонов, Николай Парфёнов, Глеб Плаксин, Евгений Весник, Елизавета Никищихина
Описание: Под Новый год градус интриг в безусловно реальном НИИ необыкновенных услуг зашкаливает, счастье нескольких молодых пар под угрозой, но настоящая любовь творит настоящие чудеса.
Сравнения с этой раздачей:
Скриншотами
Сэмплами: та / эта
Предыдущие и альтернативные раздачи

Качество видео: DVDRip
Формат видео: AVI
Видео: XviD, 704x544, 1.294:1, 25 fps, 2025 kbps, 0.212 bpp
Аудио: MP3, 48 kHz, 96 kbps, 1 ch

Доп. информация

Негодный, по мнению подавляющего большинства зрителей, звук заменён на взятый с телепоказа. В общей сложности, отличия составили порядка трёх сотен фрагментов. Подмешанный ко второй серии гудёж электросети, насколько это было возможным, ликвидирован. Контроль тыквоголовости (соотношения сторон) произведён в графическом редакторе по кадру 78433 (00:52:17:320). Среди 219931 кадра найдено вручную и заменено интерполированными 314 чересстрочных, произведено выравнивание гамм серий, коррекция баланса белого, нелинейная коррекция динамического диапазона и пространственно-временная фильтрация на основе компенсатора движения.

MediaInfo

Код:Complete name : P:\charodei.1982.hybrid.avi
Format : AVI
Format/Info : Audio Video Interleave
Format profile : OpenDML
File size : 2.19 GiB
Duration : 2h 26mn
Overall bit rate : 2 134 Kbps
Writing application : VirtualDubMod 1.5.10.2 (build 2540/release)
Writing library : VirtualDubMod build 2540/release
Video
ID : 0
Format : MPEG-4 Visual
Format profile : Advanced Simple@L5
Format settings, BVOP : 2
Format settings, QPel : No
Format settings, GMC : No warppoints
Format settings, Matrix : Default (H.263)
Codec ID : XVID
Codec ID/Hint : XviD
Duration : 2h 26mn
Bit rate : 2 025 Kbps
Width : 704 pixels
Height : 544 pixels
Display aspect ratio : 1.294
Frame rate : 25.000 fps
Color space : YUV
Chroma subsampling : 4:2:0
Bit depth : 8 bits
Scan type : Progressive
Compression mode : Lossy
Bits/(Pixel*Frame) : 0.212
Stream size : 2.07 GiB (95%)
Writing library : XviD 1.1.2 (UTC 2006-11-01)
Audio
ID : 1
Format : MPEG Audio
Format version : Version 1
Format profile : Layer 3
Codec ID : 55
Codec ID/Hint : MP3
Duration : 2h 26mn
Bit rate mode : Constant
Bit rate : 96.0 Kbps
Channel(s) : 1 channel
Sampling rate : 48.0 KHz
Compression mode : Lossy
Stream size : 101 MiB (4%)
Alignment : Split accross interleaves
Interleave, duration : 40 ms (1.00 video frame)
Interleave, preload duration : 500 ms

Скриншоты

[cybertorrent.ru].t2129.torrent 
Торрент: Зарегистрирован [ 2018-02-16 11:35 ] · 0B47AB430435C7A08B9A114D015D35DD04B49898

Скачать .torrent

Скачать

11 KB

Статус: проверено
Скачан: 0 раз
Размер: 2,19 GB
Профиль [ЛС]
Показать сообщения:    

Текущее время: 20-Июл 14:18

Часовой пояс: UTC ± 0



Вы не можете начинать темы
Вы не можете отвечать на сообщения
Вы не можете редактировать свои сообщения
Вы не можете удалять свои сообщения
Вы не можете голосовать в опросах
Вы не можете прикреплять файлы к сообщениям
Вы можете скачивать файлы