Статистика раздачи
Размер:  2,91 GB   |    Зарегистрирован:  3 месяца 8 дней   |    Скачан:  0 раз

Полного источника не было: Никогда

 
   
 
 

lopster ®

Пол:
Не указан
Стаж:
3 месяца 8 дней
Сообщений:
612

Бой с тенью 3: Последний раунд- Жанр: боевик, драма, криминал, приключения
Год выпуска: 2011
Продолжительность: 02:06:36
Режиссёр: Алексей Сидоров
В ролях: Денис Никифоров, Андрей Панин, Елена Панова, Бату Хасиков, Михаил Горевой, Дмитрий Шевченко, Ольга Дибцева, Софья Мицкевич, Шакрит Ямнарм
Описание: Боксер-чемпион Артем Колчин достиг всех мыслимых вершин и стал национальным героем. На ринг он больше не выходит, предпочитая тренерскую работу и бурную светскую жизнь с постоянным мельканием на ТВ, тусовками и интрижками. А дома его по утрам встречают дочка и жена Вика, которая больше не узнает в нем того Артема, которого она когда-то полюбила…
Внешне благополучному существованию Колчина приходит конец, когда его подопечного чуть не убивает в бою знаменитый Куэрте. Артем подозревает, что тот использует некую запрещенную технику. За доказательствами ему приходится отправиться в Гонконг, где его ждет старый знакомый Вагит Валиев: он знает о Куэрте то, чего не знает больше ни один человек. Чтобы победить, Артему придется снова выйти на ринг.
Сэмпл: http://sendfile.su/1311863

Качество видео: BDRip-AVC (Бой с тенью 3: Последний раунд 2011 Blu-ray Disc 1080p)
Формат видео: MKV
Видео: 1032x432 (2.40:1), 23.976 fps, ~2840 kbps avg, 0,266 bit/pixel
Аудио: 48 kHz, AC3 Dolby Digital, 3/2 (L,C,R,l,r) + LFE ch, ~448kbps

MediaInfo

General
Unique ID : 244438621708180367110101975674212372490 (0xB7E52A86445E71AF86AE29520580D00A)
Format : Matroska
Format version : Version 4 / Version 2
File size : 2.91 GiB
Duration : 2h 6mn
Overall bit rate : 3 289 Kbps
Encoded date : UTC 2017-02-23 12:32:49
Writing application : mkvmerge v9.9.0 ('Pick Up') 64bit
Writing library : libebml v1.3.4 + libmatroska v1.4.5
Video #1
ID : 1
Format : AVC
Format/Info : Advanced Video Codec
Format profile : High@L4.1
Format settings, CABAC : Yes
Format settings, ReFrames : 10 frames
Codec ID : V_MPEG4/ISO/AVC
Duration : 2h 6mn
Bit rate : 2 840 Kbps
Width : 1 032 pixels
Height : 432 pixels
Display aspect ratio : 2.40:1
Frame rate mode : Constant
Frame rate : 23.976 (24000/1001) fps
Color space : YUV
Chroma subsampling : 4:2:0
Bit depth : 8 bits
Scan type : Progressive
Bits/(Pixel*Frame) : 0.266
Stream size : 2.51 GiB (86%)
Writing library : x264 core 148 r2638 7599210
Encoding settings : cabac=1 / ref=10 / deblock=1:-3:-2 / analyse=0x3:0x133 / me=umh / subme=10 / psy=1 / psy_rd=1.00:0.00 / mixed_ref=1 / me_range=32 / chroma_me=1 / trellis=2 / 8x8dct=1 / cqm=0 / deadzone=21,11 / fast_pskip=0 / chroma_qp_offset=-2 / threads=6 / lookahead_threads=1 / sliced_threads=0 / nr=0 / decimate=1 / interlaced=0 / bluray_compat=0 / constrained_intra=0 / bframes=11 / b_pyramid=2 / b_adapt=2 / b_bias=0 / direct=1 / weightb=1 / open_gop=0 / weightp=2 / keyint=250 / keyint_min=23 / scenecut=40 / intra_refresh=0 / rc=2pass / mbtree=0 / bitrate=2840 / ratetol=1.0 / qcomp=0.65 / qpmin=0 / qpmax=69 / qpstep=4 / cplxblur=20.0 / qblur=0.5 / ip_ratio=1.40 / pb_ratio=1.30 / aq=3:0.90
Language : English
Default : Yes
Forced : No
Audio #2
ID : 2
Format : AC-3
Format/Info : Audio Coding 3
Mode extension : CM (complete main)
Format settings, Endianness : Big
Codec ID : A_AC3
Duration : 2h 6mn
Bit rate mode : Constant
Bit rate : 448 Kbps
Channel(s) : 6 channels
Channel positions : Front: L C R, Side: L R, LFE
Sampling rate : 48.0 KHz
Frame rate : 31.250 fps (1536 spf)
Compression mode : Lossy
Stream size : 406 MiB (14%)
Language : Russian
Default : Yes
Forced : No

лог

raw [info]: 1032x432p 1:1 @ 24000/1001 fps (cfr)
x264 [info]: using SAR=1/1
x264 [info]: using cpu capabilities: MMX2 SSE2Fast SSSE3 SSE4.2 AVX XOP FMA4 FMA3 LZCNT BMI1
x264 [info]: profile High, level 4.1
x264 [info]: frame I:1419 Avg QP:15.92 size: 67896
x264 [info]: frame P:51278 Avg QP:19.02 size: 25953
x264 [info]: frame B:129438 Avg QP:20.74 size: 9807
x264 [info]: consecutive B-frames: 6.3% 8.5% 14.0% 21.1% 14.1% 28.5% 3.5% 0.8% 1.3% 0.6% 0.5% 0.9%
x264 [info]: mb I I16..4: 5.7% 77.6% 16.7%
x264 [info]: mb P I16..4: 2.3% 19.4% 2.6% P16..4: 34.6% 21.8% 13.5% 0.5% 0.1% skip: 5.2%
x264 [info]: mb B I16..4: 0.3% 1.7% 0.3% B16..8: 40.6% 14.8% 4.5% direct: 7.5% skip:30.3% L0:42.7% L1:44.6% BI:12.7%
x264 [info]: 8x8 transform intra:78.6% inter:66.7%
x264 [info]: coded y,uvDC,uvAC intra: 81.1% 89.4% 71.6% inter: 32.2% 33.6% 11.6%
x264 [info]: i16 v,h,dc,p: 37% 18% 9% 36%
x264 [info]: i8 v,h,dc,ddl,ddr,vr,hd,vl,hu: 9% 12% 8% 9% 13% 12% 13% 11% 13%
x264 [info]: i4 v,h,dc,ddl,ddr,vr,hd,vl,hu: 8% 11% 5% 9% 15% 14% 15% 10% 13%
x264 [info]: i8c dc,h,v,p: 44% 21% 16% 19%
x264 [info]: Weighted P-Frames: Y:17.1% UV:10.5%
x264 [info]: ref P L0: 48.1% 11.9% 17.4% 6.4% 4.8% 3.3% 2.9% 1.7% 1.6% 1.4% 0.5% 0.1%
x264 [info]: ref B L0: 75.1% 11.6% 5.1% 2.7% 1.9% 1.5% 1.3% 0.6% 0.3%
x264 [info]: ref B L1: 93.7% 6.3%
x264 [info]: kb/s:2839.71
x264 [total]: encoded 182135 frames, 8.40 fps, 2839.71 kb/s

Скриншоты


[cybertorrent.ru].t213.torrent 
Торрент: Зарегистрирован [ 2018-02-15 15:34 ] · A9E7305ABE44763EE6B4C34EDDFA947DD37CCFA4

Скачать .torrent

Скачать

15 KB

Статус: проверено
Скачан: 0 раз
Размер: 2,91 GB
Профиль [ЛС]
Показать сообщения:    

Текущее время: 23-Май 16:24

Часовой пояс: UTC ± 0



Вы не можете начинать темы
Вы не можете отвечать на сообщения
Вы не можете редактировать свои сообщения
Вы не можете удалять свои сообщения
Вы не можете голосовать в опросах
Вы не можете прикреплять файлы к сообщениям
Вы можете скачивать файлы