Статистика раздачи
Размер:  1,09 GB   |    Зарегистрирован:  7 месяцев   |    Скачан:  0 раз

Полного источника не было: Никогда

   
 

Гость ®

Пол:
Не указан

Королевское Рождество / A Royal Christmas / Локализованная версия
Страна: США
Жанр: Мелодрама, комедия
Год выпуска: 2014
Продолжительность: 01:22:39
Перевод: Профессиональный (многоголосый закадровый)
Субтитры: нет
Оригинальная аудиодорожка: нет
Режиссер: Алекс Зэмм / Alex Zamm
В ролях: Лейси Чаберт
Стефен Хэйгэн
Джейн Сеймур
Кэтерин Флинн
Саймон Даттон
Митчелл Маллен
Katrina Nare
Диана Думитреску
Vlad Ianus
Кейт Лустау
Описание: Эмили и Лео влюблены друг в друга и готовятся провести первое совместное Рождество. Так бы они его и провели, но их идеальный роман подвергается серьезному испытанию на прочность. Лео оказывается вынужден сообщить своей возлюбленной, считающей его самым обычным парнем, что на самом деле он является наследником трона небольшой, но вполне себе процветающей, европейской страны под названием Кординия. Он приглашает Эмили поехать вместе с ним в Кординию на празднование Рождества. Лео надеется, что там она сможет получше узнать его c новой для себя стороны, а заодно попытается завоевать расположение его матери — королевы Изадоры, которая желает, чтобы он связал себя узами брака исключительно с девушкой благородного происхождения…
Сэмпл: http://multi-up.com/1220822
Качество видео: SATRip
Формат видео: AVI
Видео: MPEG4, XviD, 720x400 (16:9), 25.000 fps, 1 690 Kbps (0.235 bit/pixel)
Аудио: AC-3, 48.0 KHz, 2 ch, 192 Kbps, CBR

MediaInfo

Общее
Полное имя : F:\Королевское Рождество.avi
Формат : AVI
Формат/Информация : Audio Video Interleave
Размер файла : 1,09 Гбайт
Продолжительность : 1 ч. 22 м.
Общий поток : 1892 Кбит/сек
Название фильма : Королевское Рождество / A Royal Christmas (2014)
Программа кодирования : VirtualDubMod 1.5.10.2 (build 2540/release)
Библиотека кодирования : VirtualDubMod build 2540/release
Авторское право : miha2154
Видео
Идентификатор : 0
Формат : MPEG-4 Visual
Профиль формата : Advanced Simple@L5
Настройки формата : BVOP1 / Custom Matrix
Параметр BVOP формата : 1
Параметр QPel формата : Нет
Параметр GMC формата : Без точки перехода
Параметр матрицы формата : Выборочная
Идентификатор кодека : XVID
Идентификатор кодека/Подсказка : XviD
Продолжительность : 1 ч. 22 м.
Битрейт : 1690 Кбит/сек
Ширина : 720 пикселей
Высота : 400 пикселей
Соотношение сторон : 16:9
Частота кадров : 25,000 кадров/сек
Цветовое пространство : YUV
Субдискретизация насыщенности : 4:2:0
Битовая глубина : 8 бит
Тип развёртки : Прогрессивная
Метод сжатия : С потерями
Бит/(Пиксели*Кадры) : 0.235
Размер потока : 999 Мбайт (89%)
Библиотека кодирования : XviD 65
Аудио
Идентификатор : 1
Формат : AC-3
Формат/Информация : Audio Coding 3
Коммерческое название : Dolby Digital
Идентификатор кодека : 2000
Продолжительность : 1 ч. 22 м.
Вид битрейта : Постоянный
Битрейт : 192 Кбит/сек
Каналы : 2 канала
Channel layout : L R
Частота : 48,0 КГц
Частота кадров : 31,250 кадров/сек (1536 SPF)
Битовая глубина : 16 бит
Метод сжатия : С потерями
Размер потока : 114 Мбайт (10%)
Выравнивание : Разделение по промежуткам
Продолжительность промежутка : 40 мс. (1,00 видеокадр)
Время предзагрузки промежутка : 500 мс.
ServiceKind/String : Complete Main

Скриншот c названием фильма

Скриншоты


[cybertorrent.ru].t213.torrent 
Торрент: Зарегистрирован [ 2019-03-18 10:04 ] · 92AA19C6B990D24A254A93B1958E8B9E337E2F25

Скачать .torrent

Скачать

11 KB

Статус: проверено
Скачан: 0 раз
Размер: 1,09 GB
terms.php
Показать сообщения:    

Текущее время: 19-Окт 04:11

Часовой пояс: UTC ± 0



Вы не можете начинать темы
Вы не можете отвечать на сообщения
Вы не можете редактировать свои сообщения
Вы не можете удалять свои сообщения
Вы не можете голосовать в опросах
Вы не можете прикреплять файлы к сообщениям
Вы можете скачивать файлы