Статистика раздачи
Размер:  877 MB   |    Зарегистрирован:  9 месяцев 4 дня   |    Скачан:  0 раз

Полного источника не было: Никогда

Личеров:  1  [  0 KB/s  ]  
 
   
 
 

DR_KTO ®

Пол:
Не указан
Стаж:
9 месяцев 5 дней
Сообщений:
105

С Рождеством от всего сердца! / From All Of Us To All Of You
Год выпуска: 2013
Страна: США
Жанр: новогодняя музыкальная фантазия
Продолжительность: 00:47:51
Перевод: Профессиональный (дублированный)
Русские субтитры: нет
Режиссёр: Walt Disney
Описание: музыкальная фантазия по мотивам самых известных и любимых мультфильмов Уолта Диснея ...
Доп. информация: Запись (захват) спутниковой трансляции канала "Дисней".
Список анимационных мультфильмов:
01. Мастерская Санта Клауса / Santa's Workshop (1932)
02. Питер Пэн / Peter Pan (1953) - фрагмент
03. Бэмби / Bambi (1942) - фрагмент
04. Пиноккио / Pinocchio (1940) - фрагмент
05. Золушка / Cinderella (1950) - фрагмент
06. Белоснежка и семь гномов / Snow White And The Seven Dwarfs (1937) - фрагмент
07. Русалочка / The Little Mermaid (1989) - фрагмент
08. Красавица и чудовище / Beauty And The Beast (1991) - фрагмент
09. Рождественская история Микки / Mickey's Christmas Carol (1983)
10. Холодное сердце / Frozen (2013) - фрагмент
11. Самолеты / Planes (2013) - фрагмент
Релиз группы:
Семпл: https://yadi.sk/i/2QqcAmledji8q
Качество видео: DVB
Формат видео: MPEG-TS
Видео: MPEG4 Video (H264), 720x576@785x576 (4:3), анаморф, 25 fps, 2200 kbps
Аудио: MPEG Audio, 2 сh, 48 kHz, 192 kbps

MediaInfo

General
ID : 1 (0x1)
Complete name : D:\С Рождеством от всего сердца. (2013)_DVB by SLuMeP.ts
Format : MPEG-TS
File size : 877 MiB
Duration : 47mn 51s
Overall bit rate mode : Variable
Overall bit rate : 2 563 Kbps
Video
ID : 38 (0x26)
Menu ID : 1 (0x1)
Format : AVC
Format/Info : Advanced Video Codec
Format profile : Main@L3.0
Format settings, CABAC : Yes
Format settings, ReFrames : 4 frames
Codec ID : 27
Duration : 47mn 51s
Bit rate : 2 242 Kbps
Width : 720 pixels
Height : 576 pixels
Display aspect ratio : 4:3
Frame rate : 25.000 fps
Standard : PAL
Color space : YUV
Chroma subsampling : 4:2:0
Bit depth : 8 bits
Scan type : Interlaced
Bits/(Pixel*Frame) : 0.216
Stream size : 768 MiB (87%)
Color primaries : BT.601 PAL
Transfer characteristics : BT.470 System B, BT.470 System G
Matrix coefficients : BT.601
Audio
ID : 37 (0x25)
Menu ID : 1 (0x1)
Format : MPEG Audio
Format version : Version 1
Format profile : Layer 2
Codec ID : 3
Duration : 47mn 51s
Bit rate mode : Constant
Bit rate : 192 Kbps
Channel(s) : 2 channels
Sampling rate : 48.0 KHz
Compression mode : Lossy
Stream size : 65.7 MiB (7%)
Language : English

Скриншоты


[cybertorrent.ru].t2133.torrent 
Торрент: Зарегистрирован [ 2018-02-16 11:35 ] · 4FFD746A37EE8920D9BA900B11BBBBD2299D45A5

Скачать .torrent

Скачать

18 KB

Статус: проверено
Скачан: 0 раз
Размер: 877 MB
Профиль [ЛС]
Показать сообщения:    

Текущее время: 20-Ноя 14:01

Часовой пояс: UTC ± 0



Вы не можете начинать темы
Вы не можете отвечать на сообщения
Вы не можете редактировать свои сообщения
Вы не можете удалять свои сообщения
Вы не можете голосовать в опросах
Вы не можете прикреплять файлы к сообщениям
Вы можете скачивать файлы
Torrents24.ru открытый BitTorrent Torrents24.pl открытый BitTorrent CyberTorrent.ru открытый BitTorrent BtList.ru рейтинг BitTorrent трекеров Яндекс.Метрика