Статистика раздачи
Нет
 
     
 
 

K15 ®

Пол:
Мужской
Стаж:
9 месяцев 5 дней
Сообщений:
192

Информация о фильме
Название: Дьявол всегда здесь
Оригинальное название: The Devil All the Time
Год выхода: 2020
Жанр: триллер, драма, криминал
Режиссер: Антонио Кампос
В ролях: Том Холланд, Роберт Паттинсон, Билл Скарсгард, Хейли Беннетт, Райли Кио, Гарри Меллинг, Себастиан Стэн, Миа Васиковска, Элайза Сканлен, Джейсон Кларк
О фильме: Город Нокерстифф, штат Огайо. Безутешный Уиллард Рассел готов на всё, лишь бы спасти умирающую жену. Он начинает молить небеса о спасении, забыв об остальном мире, в результате чего его сын Элвин вынужден превратиться из забитого школьника в решительного мужчину, способного взять дело в свои руки.

Страна: США
Продолжительность: 02:18:52
Перевод: Субтитры
Файл
Кодек: x.264
Качество: WEB-DL 1080p
Видео: AVC, 1920x1080 (16:9), 24.000 fps, 7 500 kb/s
Аудио: E-AC3 with Dolby Atmos, 48.0 kHz, 6 ch, 768 kb/s (English)
Субтитры: Русские (Netflix), английские + Multi
Сэмпл | Трейлер

MI

General
Unique ID : 248474169576427843225611344962289038029 (0xBAEE626560AA74D69BA1CE89133A72CD)
Complete name : The.Devil.All.the.Time.(2020).NF.WEB-DL.1080p.mkv
Format : Matroska
Format version : Version 4
File size : 7.95 GiB
Duration : 2 h 18 min
Overall bit rate mode : Variable
Overall bit rate : 8 197 kb/s
Encoded date : UTC 2020-09-16 08:18:24
Writing application : mkvmerge v8.3.0 ('Over the Horizon') 64bit
Writing library : libebml v1.3.1 + libmatroska v1.4.2
Video
ID : 1
Format : AVC
Format/Info : Advanced Video Codec
Format profile : Main@L4
Format settings : CABAC / 3 Ref Frames
Format settings, CABAC : Yes
Format settings, ReFrames : 3 frames
Codec ID : V_MPEG4/ISO/AVC
Duration : 2 h 18 min
Bit rate mode : Variable
Bit rate : 7 500 kb/s
Maximum bit rate : 11.2 Mb/s
Width : 1 920 pixels
Height : 1 080 pixels
Display aspect ratio : 16:9
Frame rate mode : Constant
Frame rate : 24.000 FPS
Color space : YUV
Chroma subsampling : 4:2:0
Bit depth : 8 bits
Scan type : Progressive
Bits/(Pixel*Frame) : 0.151
Stream size : 7.20 GiB (91%)
Writing library : x264 core 148 r2722 1b0121b
Encoding settings : cabac=1 / ref=3 / deblock=1:0:0 / analyse=0x1:0x111 / me=umh / subme=10 / psy=1 / psy_rd=1.00:0.00 / mixed_ref=1 / me_range=24 / chroma_me=1 / trellis=2 / 8x8dct=0 / cqm=0 / deadzone=21,11 / fast_pskip=1 / chroma_qp_offset=-2 / threads=6 / lookahead_threads=1 / sliced_threads=0 / nr=0 / decimate=1 / interlaced=0 / bluray_compat=0 / stitchable=1 / constrained_intra=0 / bframes=2 / b_pyramid=0 / b_adapt=2 / b_bias=0 / direct=3 / weightb=1 / open_gop=0 / weightp=2 / keyint=250 / keyint_min=24 / scenecut=0 / intra_refresh=0 / rc_lookahead=48 / rc=2pass / mbtree=1 / bitrate=7500 / ratetol=1.0 / qcomp=0.50 / qpmin=6 / qpmax=51 / qpstep=4 / cplxblur=20.0 / qblur=0.5 / vbv_maxrate=11250 / vbv_bufsize=15000 / nal_hrd=vbr / filler=0 / ip_ratio=1.40 / aq=1:1.00
Default : Yes
Forced : No
Audio
ID : 2
Format : E-AC-3 JOC
Format/Info : Enhanced AC-3 with Joint Object Coding
Commercial name : Dolby Digital Plus with Dolby Atmos
Codec ID : A_EAC3
Duration : 2 h 18 min
Bit rate mode : Constant
Bit rate : 768 kb/s
Channel(s) : 6 channels
Channel layout : L R C LFE Ls Rs
Sampling rate : 48.0 kHz
Frame rate : 31.250 FPS (1536 SPF)
Compression mode : Lossy
Stream size : 763 MiB (9%)
Title : English
Language : English
Service kind : Complete Main
Default : No
Forced : No
Complexity index : 16
Number of dynamic objects : 15
Bed channel count : 1 channel
Bed channel configuration : LFE
Text #1
ID : 3
Format : UTF-8
Codec ID : S_TEXT/UTF8
Codec ID/Info : UTF-8 Plain Text
Duration : 2 h 11 min
Bit rate : 76 b/s
Count of elements : 1648
Stream size : 73.7 KiB (0%)
Title : Russian
Language : Russian
Default : Yes
Forced : Yes
Text #2
ID : 4
Format : UTF-8
Codec ID : S_TEXT/UTF8
Codec ID/Info : UTF-8 Plain Text
Duration : 2 h 15 min
Bit rate : 62 b/s
Count of elements : 2036
Stream size : 62.1 KiB (0%)
Title : English [CC]
Language : English
Default : No
Forced : No
Text #3
ID : 5
Format : UTF-8
Codec ID : S_TEXT/UTF8
Codec ID/Info : UTF-8 Plain Text
Duration : 2 h 11 min
Bit rate : 49 b/s
Count of elements : 1621
Stream size : 47.2 KiB (0%)
Title : Brazilian Portuguese
Language : Portuguese
Default : No
Forced : No
Text #4
ID : 6
Format : UTF-8
Codec ID : S_TEXT/UTF8
Codec ID/Info : UTF-8 Plain Text
Duration : 2 h 17 min
Bit rate : 46 b/s
Count of elements : 1659
Stream size : 47.0 KiB (0%)
Title : Czech
Language : Czech
Default : No
Forced : No
Text #5
ID : 7
Format : UTF-8
Codec ID : S_TEXT/UTF8
Codec ID/Info : UTF-8 Plain Text
Duration : 2 h 17 min
Bit rate : 39 b/s
Count of elements : 1662
Stream size : 39.7 KiB (0%)
Title : Danish
Language : Danish
Default : No
Forced : No
Text #6
ID : 8
Format : UTF-8
Codec ID : S_TEXT/UTF8
Codec ID/Info : UTF-8 Plain Text
Duration : 2 h 17 min
Bit rate : 45 b/s
Count of elements : 1460
Stream size : 45.5 KiB (0%)
Title : German
Language : German
Default : No
Forced : No
Text #7
ID : 9
Format : UTF-8
Codec ID : S_TEXT/UTF8
Codec ID/Info : UTF-8 Plain Text
Duration : 2 h 17 min
Bit rate : 74 b/s
Count of elements : 1657
Stream size : 75.2 KiB (0%)
Title : Greek
Language : Greek
Default : No
Forced : No
Text #8
ID : 10
Format : UTF-8
Codec ID : S_TEXT/UTF8
Codec ID/Info : UTF-8 Plain Text
Duration : 2 h 11 min
Bit rate : 46 b/s
Count of elements : 1629
Stream size : 45.0 KiB (0%)
Title : European Spanish
Language : Spanish
Default : No
Forced : No
Text #9
ID : 11
Format : UTF-8
Codec ID : S_TEXT/UTF8
Codec ID/Info : UTF-8 Plain Text
Duration : 2 h 17 min
Bit rate : 45 b/s
Count of elements : 1605
Stream size : 45.9 KiB (0%)
Title : Finnish
Language : Finnish
Default : No
Forced : No
Text #10
ID : 12
Format : UTF-8
Codec ID : S_TEXT/UTF8
Codec ID/Info : UTF-8 Plain Text
Duration : 2 h 11 min
Bit rate : 45 b/s
Count of elements : 1624
Stream size : 43.6 KiB (0%)
Title : French
Language : French
Default : No
Forced : No
Text #11
ID : 13
Format : UTF-8
Codec ID : S_TEXT/UTF8
Codec ID/Info : UTF-8 Plain Text
Duration : 2 h 11 min
Bit rate : 75 b/s
Count of elements : 1584
Stream size : 72.6 KiB (0%)
Title : Hebrew
Language : Hebrew
Default : No
Forced : No
Text #12
ID : 14
Format : UTF-8
Codec ID : S_TEXT/UTF8
Codec ID/Info : UTF-8 Plain Text
Duration : 2 h 17 min
Bit rate : 41 b/s
Count of elements : 1637
Stream size : 41.7 KiB (0%)
Title : Croatian
Language : Croatian
Default : No
Forced : No
Text #13
ID : 15
Format : UTF-8
Codec ID : S_TEXT/UTF8
Codec ID/Info : UTF-8 Plain Text
Duration : 2 h 17 min
Bit rate : 46 b/s
Count of elements : 1592
Stream size : 46.9 KiB (0%)
Title : Hungarian
Language : Hungarian
Default : No
Forced : No
Text #14
ID : 16
Format : UTF-8
Codec ID : S_TEXT/UTF8
Codec ID/Info : UTF-8 Plain Text
Duration : 2 h 17 min
Bit rate : 42 b/s
Count of elements : 1658
Stream size : 42.4 KiB (0%)
Title : Indonesian
Language : Indonesian
Default : No
Forced : No
Text #15
ID : 17
Format : UTF-8
Codec ID : S_TEXT/UTF8
Codec ID/Info : UTF-8 Plain Text
Duration : 2 h 17 min
Bit rate : 45 b/s
Count of elements : 1514
Stream size : 46.2 KiB (0%)
Title : Italian
Language : Italian
Default : No
Forced : No
Text #16
ID : 18
Format : UTF-8
Codec ID : S_TEXT/UTF8
Codec ID/Info : UTF-8 Plain Text
Duration : 2 h 11 min
Bit rate : 47 b/s
Count of elements : 1630
Stream size : 45.7 KiB (0%)
Title : Japanese
Language : Japanese
Default : No
Forced : No
Text #17
ID : 19
Format : UTF-8
Codec ID : S_TEXT/UTF8
Codec ID/Info : UTF-8 Plain Text
Duration : 2 h 17 min
Bit rate : 60 b/s
Count of elements : 1677
Stream size : 61.2 KiB (0%)
Title : Korean
Language : Korean
Default : No
Forced : No
Text #18
ID : 20
Format : UTF-8
Codec ID : S_TEXT/UTF8
Codec ID/Info : UTF-8 Plain Text
Duration : 2 h 17 min
Bit rate : 43 b/s
Count of elements : 1647
Stream size : 43.8 KiB (0%)
Title : Malay
Language : Malay
Default : No
Forced : No
Text #19
ID : 21
Format : UTF-8
Codec ID : S_TEXT/UTF8
Codec ID/Info : UTF-8 Plain Text
Duration : 2 h 17 min
Bit rate : 43 b/s
Count of elements : 1494
Stream size : 43.9 KiB (0%)
Title : Dutch
Language : Dutch
Default : No
Forced : No
Text #20
ID : 22
Format : UTF-8
Codec ID : S_TEXT/UTF8
Codec ID/Info : UTF-8 Plain Text
Duration : 2 h 11 min
Bit rate : 45 b/s
Count of elements : 1411
Stream size : 43.4 KiB (0%)
Title : Norwegian Bokmal
Language : Norwegian Bokmal
Default : No
Forced : No
Text #21
ID : 23
Format : UTF-8
Codec ID : S_TEXT/UTF8
Codec ID/Info : UTF-8 Plain Text
Duration : 2 h 11 min
Bit rate : 42 b/s
Count of elements : 1536
Stream size : 40.9 KiB (0%)
Title : Polish
Language : Polish
Default : No
Forced : No
Text #22
ID : 24
Format : UTF-8
Codec ID : S_TEXT/UTF8
Codec ID/Info : UTF-8 Plain Text
Duration : 2 h 11 min
Bit rate : 45 b/s
Count of elements : 1539
Stream size : 43.8 KiB (0%)
Title : Portuguese
Language : Portuguese
Default : No
Forced : No
Text #23
ID : 25
Format : UTF-8
Codec ID : S_TEXT/UTF8
Codec ID/Info : UTF-8 Plain Text
Duration : 2 h 17 min
Bit rate : 52 b/s
Count of elements : 1540
Stream size : 53.0 KiB (0%)
Title : Romanian
Language : Romanian
Default : No
Forced : No
Text #24
ID : 26
Format : UTF-8
Codec ID : S_TEXT/UTF8
Codec ID/Info : UTF-8 Plain Text
Duration : 2 h 11 min
Bit rate : 44 b/s
Count of elements : 1609
Stream size : 42.9 KiB (0%)
Title : Spanish
Language : Spanish
Default : No
Forced : No
Text #25
ID : 27
Format : UTF-8
Codec ID : S_TEXT/UTF8
Codec ID/Info : UTF-8 Plain Text
Duration : 2 h 17 min
Bit rate : 41 b/s
Count of elements : 1596
Stream size : 41.8 KiB (0%)
Title : Swedish
Language : Swedish
Default : No
Forced : No
Text #26
ID : 28
Format : UTF-8
Codec ID : S_TEXT/UTF8
Codec ID/Info : UTF-8 Plain Text
Duration : 2 h 11 min
Bit rate : 124 b/s
Count of elements : 1657
Stream size : 119 KiB (0%)
Title : Thai
Language : Thai
Default : No
Forced : No
Text #27
ID : 29
Format : UTF-8
Codec ID : S_TEXT/UTF8
Codec ID/Info : UTF-8 Plain Text
Duration : 2 h 17 min
Bit rate : 46 b/s
Count of elements : 1579
Stream size : 47.3 KiB (0%)
Title : Turkish
Language : Turkish
Default : No
Forced : No
Text #28
ID : 30
Format : UTF-8
Codec ID : S_TEXT/UTF8
Codec ID/Info : UTF-8 Plain Text
Duration : 2 h 17 min
Bit rate : 64 b/s
Count of elements : 1501
Stream size : 65.3 KiB (0%)
Title : Vietnamese
Language : Vietnamese
Default : No
Forced : No
Text #29
ID : 31
Format : UTF-8
Codec ID : S_TEXT/UTF8
Codec ID/Info : UTF-8 Plain Text
Duration : 2 h 17 min
Bit rate : 48 b/s
Count of elements : 1638
Stream size : 48.7 KiB (0%)
Title : Chinese Simplified
Language : Chinese
Default : No
Forced : No
Text #30
ID : 32
Format : UTF-8
Codec ID : S_TEXT/UTF8
Codec ID/Info : UTF-8 Plain Text
Duration : 2 h 17 min
Bit rate : 47 b/s
Count of elements : 1678
Stream size : 47.9 KiB (0%)
Title : Chinese Traditional
Language : Chinese
Default : No
Forced : No
Text #31
ID : 33
Format : UTF-8
Codec ID : S_TEXT/UTF8
Codec ID/Info : UTF-8 Plain Text
Duration : 2 h 17 min
Bit rate : 87 b/s
Count of elements : 1659
Stream size : 87.9 KiB (0%)
Title : Arabic
Language : Arabic
Default : No
Forced : No

Скриншоты

Профиль [ЛС]
Показать сообщения:    

Текущее время: 27-Окт 21:39

Часовой пояс: UTC ± 0



Вы не можете начинать темы
Вы не можете отвечать на сообщения
Вы не можете редактировать свои сообщения
Вы не можете удалять свои сообщения
Вы не можете голосовать в опросах
Вы не можете прикреплять файлы к сообщениям
Вы не можете скачивать файлы