Статистика раздачи
Нет
 
     
 
 

K15 ®

Пол:
Мужской
Стаж:
8 месяцев 28 дней
Сообщений:
172

- Явление / Fatima - Информация о фильме
Название: Явление
Оригинальное название: Fatima
Год выхода: 2020
Жанр: Драма
Режиссер: Марко Понтекорво
В ролях: Альба Баптиста, Харви Кейтель, Жоаким ди Алмейда, Горан Вишнич, Соня Брага, Жуана Рибейру, Лусия Монис, Эстефания Джил, Ана Морейра, Жоана Паис де Брито
Описание: Фильм основан на реальной истории. Действие разворачивается в португальском городе Фатима, где трое детей сообщают родителям, что видели образ Девы Марии, спустившейся с небес. Поначалу никто им не верит, но весть об этом разносится по всей стране, что становится толчком для масштабного паломничества в Фатиму.

Страна: Португалия, США
Студия: Origin Entertainment, Rose Pictures, Panorama Films
Продолжительность: 01:53:19
Перевод: Дублированное - iTunes

Информация о файле
Кодек: AVC
Формат: MKV
Качество: WEB-DLRip-AVC
Видео: MPEG-4 AVC, 1024x428 (2.40:1), 2 022 kb/s, 25.000 fps, 0.185
Аудио RU: AC3, 6 ch, 48 kHz, 384kbps
Навигация по главам: Да

Трейлер

Скриншоты

MediaInfo

x264 info: frame I:1238 Avg QP:13.68 size: 58624
x264 info: frame P:44443 Avg QP:16.81 size: 19739
x264 info: frame B:116443 Avg QP:18.72 size: 5901
x264 info: consecutive B-frames: 3.2% 7.4% 8.5% 57.8% 8.5% 11.5% 1.3% 0.6% 0.1% 0.3% 0.1% 0.7%
General
Unique ID : 225336658294148507146173198768635683956 (0xA9864303DCC60BDE3BC63A4E29F8A474)
Complete name : D:uTorrentРипы_от_wolf1245_MediaBitFATIMA_2020_WEB-DLRip-AVC_wolf1245 & MediaBit.mkv
Format : Matroska
Format version : Version 4
File size : 1.82 GiB
Duration : 1 h 48 min
Overall bit rate : 2 405 kb/s
Movie name : FATIMA_2020_WEB-DLRip-AVC from wolf1245 & MediaBit
Encoded date : UTC 2020-09-13 08:30:42
Writing application : mkvmerge v50.0.0 ('Awakenings') 64-bit
Writing library : libebml v1.4.0 + libmatroska v1.6.2
Cover : Yes
Attachments : cover
Video
ID : 1
Format : AVC
Format/Info : Advanced Video Codec
Format profile : High@L4.1
Format settings : CABAC / 11 Ref Frames
Format settings, CABAC : Yes
Format settings, Reference frames : 11 frames
Codec ID : V_MPEG4/ISO/AVC
Duration : 1 h 48 min
Bit rate : 2 022 kb/s
Width : 1 024 pixels
Height : 428 pixels
Display aspect ratio : 2.40:1
Frame rate mode : Constant
Frame rate : 25.000 FPS
Color space : YUV
Chroma subsampling : 4:2:0
Bit depth : 8 bits
Scan type : Progressive
Bits/(Pixel*Frame) : 0.185
Stream size : 1.52 GiB (84%)
Title : wolf1245 & MediaBit
Writing library : x264 core 157 r2958 57baac4
Encoding settings : cabac=1 / ref=11 / deblock=1:-3:-3 / analyse=0x3:0x133 / me=umh / subme=11 / psy=1 / psy_rd=1.10:0.00 / mixed_ref=1 / me_range=48 / chroma_me=1 / trellis=2 / 8x8dct=1 / cqm=0 / deadzone=21,11 / fast_pskip=0 / chroma_qp_offset=-2 / threads=10 / lookahead_threads=2 / sliced_threads=0 / nr=0 / decimate=0 / interlaced=0 / bluray_compat=0 / constrained_intra=0 / bframes=11 / b_pyramid=2 / b_adapt=2 / b_bias=0 / direct=3 / weightb=1 / open_gop=0 / weightp=2 / keyint=250 / keyint_min=25 / scenecut=40 / intra_refresh=0 / rc_lookahead=60 / rc=2pass / mbtree=0 / bitrate=2022 / ratetol=1.0 / qcomp=0.60 / qpmin=0 / qpmax=69 / qpstep=4 / cplxblur=20.0 / qblur=0.5 / vbv_maxrate=50000 / vbv_bufsize=62500 / nal_hrd=none / filler=0 / ip_ratio=1.40 / pb_ratio=1.30 / aq=2:0.80
Language : English
Default : Yes
Forced : No
Color range : Limited
Color primaries : BT.709
Transfer characteristics : BT.709
Matrix coefficients : BT.709
Audio
ID : 2
Format : AC-3
Format/Info : Audio Coding 3
Commercial name : Dolby Digital
Codec ID : A_AC3
Duration : 1 h 48 min
Bit rate mode : Constant
Bit rate : 384 kb/s
Channel(s) : 6 channels
Channel layout : L R C LFE Ls Rs
Sampling rate : 48.0 kHz
Frame rate : 31.250 FPS (1536 SPF)
Compression mode : Lossy
Stream size : 297 MiB (16%)
Title : [DUB] | (iTunes)
Language : Russian
Service kind : Complete Main
Default : Yes
Forced : No
Menu
00:00:00.000 : :Глава 1
00:03:51.280 : :Глава 2
00:07:59.240 : :Глава 3
00:13:41.440 : :Глава 4
00:20:54.360 : :Глава 5
00:29:16.120 : :Глава 6
00:34:51.480 : :Глава 7
00:46:11.880 : :Глава 8
00:53:13.360 : :Глава 9
01:00:52.640 : :Глава 10
01:09:15.479 : :Глава 11
01:21:13.200 : :Глава 12
01:28:52.560 : :Глава 13
01:34:06.720 : :Глава 14
01:42:29.960 : :Глава 15
Релиз от: &
Профиль [ЛС]
Показать сообщения:    

Текущее время: 20-Окт 05:15

Часовой пояс: UTC ± 0



Вы не можете начинать темы
Вы не можете отвечать на сообщения
Вы не можете редактировать свои сообщения
Вы не можете удалять свои сообщения
Вы не можете голосовать в опросах
Вы не можете прикреплять файлы к сообщениям
Вы не можете скачивать файлы