Статистика раздачи
Размер:  17,61 GB   |    Зарегистрирован:  7 месяцев 8 дней   |    Скачан:  0 раз

Полного источника не было: Никогда

 
   
 
 

DR_KTO ®

Пол:
Не указан
Стаж:
7 месяцев 9 дней
Сообщений:
105

Всё, что вы хотели знать, но боялись спросить (вып.1-50)
Дата/Год выпуска: 2012
Страна: Россия
Жанр: Детская, познавательная
Продолжительность: 50 х 00:25:00
Перевод: Не требуется
Русские субтитры: нет
Режиссер: Антон Васильев
Телеканал: Карусель
Описание: Хотите знать обо всём на свете? Эта интерактивная развлекательная программа весело и доступно расскажет юным зрителям о многих интересных событиях и вещах.
Ведущий программы — чудаковатый, продвинутый и знающий себе цену Всезнайка (Алеша Папович). Он прочёл миллион книг, посмотрел сто тысяч фильмов, избороздил весь Интернет и теперь ЗНАЕТ ВСЁ и с радостью готов делиться своими открытиями с маленькими зрителями.
Кроме того, ведущий часто берет интервью у специалистов, которые раскрывают зрителям суть того или иного явления, рассказывают об истории происхождения вещей и важных вехах развития человечества.
Доп. информация: Запись с канала "Карусель". Выпуски №№1-50. Краткие названия выпускам в соответствии с http://www.karusel-tv.ru/announce/12280 присвоены автором раздачи.
Сэмпл: http://multi-up.com/1025134
Ссылка на предыдущие и альтернативные раздачи: http://cybertorrent.ru/tracker.php?nm=%C2%F1%B8+%F7%F2%EE+%E2%FB+%...0%EE%F1%E8%F2%FC
Релиз:
качество: SATRip
формат: AVI
Видео: 688x544 (4:3), 25 fps, XviD build 64 ~1795 kbps avg, 0.19 bit/pixel
Аудио: 48 kHz, MPEG Layer 3, 2 ch, ~128.00 kbps avg

Список выпусков/серий

01 Появление хлеба. Голос. Если потерялся. Вода в кране.avi
02 Войны. Мышцы. Ты поссорился с другом. Кошки и собаки.avi
03 Мода. Компьютер. Ты боишься зубного врача. Слон и мыши.avi
04 Конфеты. Молочные зубы. Неожиданные гости. Почему огонь опасен.avi
05 Краски. Когда кошки стали домашними. Что тебе идёт.avi
06 Музыкальные инструменты. Электричество. Как быстро убрать в комнате.avi
07 Бумага. Кто как видит. Почему муха потирает лапки.avi
08 Игрушки. Почему нужно пить много. Ты захлопнул дверь. Куда идут часы.avi
09 Былинные герои. Почему Луна не падает. Тебя оставили с братом.avi
10 Чай. Мозг. Ты боишься темноты. Зимой и летом одним цветом.avi
11 Стекло. Редкие животные. Мусор. Как отвлечь от дел.avi
12 Причёска. Сладкое. Кем стать. Космос.avi
13 Театр. Самолёт. Плохое настроение. Почему пахнут цветы.avi
14 Ковры. Мытьё рук. День рождения мамы. Зачем пчеле жало.avi
15 Деньги. Язык животных. Если влюбилась. Зевота.avi
16 Царица и королева. Солнечный свет. Боишься один. Зимовка рыб.avi
17 Магазины. Роботы. Если влюбился. Ветер.avi
18 Общественный транспорт. Нанотехнологии. Если разбил вазу. Почтовые голуби.avi
19 Письменность. Телефон. Если получил двойку. Зачем птицам перья.avi
20 Карты. Кто не спит ночью. Если пристают хулиганы. Сон.avi
21 Языки. Цунами. Как подружиться. Радуга.avi
22 Первое кругосветное путешествие. Вкус еды. Скука. Морская вода .avi
23 Спорт. Идеальная фигура. Рассеяность. Икота.avi
24 Древние учёные.Все кого-то едят. Обижает старший брат. Жара.avi
25 Баба Яга и ведьмы. Экология. Утренний подъём. Пчёлы и мёд.avi
26 Государства. Нос. Невнимательность. Слон.avi
27 Фортепьяно. Дрессировка. Если что-то не получается. Деревья и листья.avi
28 Почему еда портится. Куклы. Если дразнят. Где спит медведь.avi
29 Как делают мультики. Кто придумал автомобиль. Что подарить другу. Молния и гром.avi
30 Вызревание плодов. Приготовление еды. Не доверяют важные дела. Падение звёзд.avi
31 Мусор. Мороженое. Если боишься собак. Зимние узоры на окнах.avi
32 Породы собак. Первая лампочка. Не хочется делиться. Имя.avi
33 Солнечное затмение. Как появились школы. Если родители ссорятся. Почему снег белый.avi
34 Падение метеорита. Почта. Если обижают мальчики. Хвост у животных.avi
35 Батарейка. Дома. Родители не верят. Как дышит цветок.avi
36 Как работает телевизор. Семь чудес света. День рождения. Арктический холод.avi
37 Шоколад. Потерял собаку. Страус, голова, песок.avi
38 Киты. Появление косметики. Боязнь выступлений. Зебры.avi
39 Роботы. Лечат ли кошки. Не хотят дружить. Ёж.avi
40 Прогноз погоды. Холодильник. Старые вещи. Ядовитые насекомые.avi
41 Где нет зимы. Утюг. В тебя влюбились. Лисий хвост.avi
42 Динозавры. Красная книга. Нашёл собаку. Растения-хищники.avi
43 Сладости. Лечение зубов. Украшение зубов. Мишка косолапый.avi
44 Плавание предметов. Волонтёры. Часто опаздываешь. Заяц-косой.avi
45 Вулкан. Ориентация по звёздам. Популярность. Бабочки.avi
46 Раскрытие преступлений. Бутерброд. Переходный возраст. Дрожжи.avi
47 Смеются ли животные. Книга рекордов Гиннеса. Проиграл соревнования. Домовой.avi
48 Мыльные пузыри. Полёты в космос. Опекают родители. Ложь и нос.avi
49 Животные и награды. Самое высокое здание. Влюбились несколько мальчиков.Светлячки.avi
50 Грибы. Атомная бомба. Перевели в новую школу. Птенцы голубей.avi
05.07.15 добавлены выпуски:
01 Появление хлеба. Голос. Если потерялся. Вода в кране.avi
38 Киты. Появление косметики. Боязнь выступлений. Зебры.avi

MediaInfo

Полное имя : H:\01 РАЗДАЧИ ШОУ\Всё, что вы хотели знать, но боялись спросить\02 Войны. Мышцы. Ты поссорился с другом. Кошки и собаки.avi
Формат : AVI
Формат/Информация : Audio Video Interleave
Размер файла : 344 Мбайт
Продолжительность : 24 м.
Общий поток : 1937 Кбит/сек
Программа кодирования : Lavf54.63.100
Видео
Идентификатор : 0
Формат : MPEG-4 Visual
Профиль формата : Simple@L3
Параметр BVOP формата : Нет
Параметр QPel формата : Нет
Параметр GMC формата : Без точки перехода
Параметр матрицы формата : Default (H.263)
Идентификатор кодека : XVID
Идентификатор кодека/Подсказка : XviD
Продолжительность : 24 м.
Битрейт : 1796 Кбит/сек
Ширина : 688 пикселей
Высота : 544 пикселя
Соотношение сторон : 4:3
Частота кадров : 25,000 кадров/сек
Цветовое пространство : YUV
Субдискретизация насыщенности : 4:2:0
Битовая глубина : 8 бит
Тип развёртки : Прогрессивная
Метод сжатия : С потерями
Бит/(Пиксели*Кадры) : 0.192
Размер потока : 319 Мбайт (93%)
Библиотека кодирования : XviD 64
Аудио
Идентификатор : 1
Формат : MPEG Audio
Версия формата : Version 1
Профиль формата : Layer 3
Идентификатор кодека : 55
Идентификатор кодека/Подсказка : MP3
Продолжительность : 24 м.
Вид битрейта : Постоянный
Битрейт : 128 Кбит/сек
Каналы : 2 канала
Частота : 48,0 КГц
Метод сжатия : С потерями
Размер потока : 22,7 Мбайт (7%)
Выравнивание : Соединение по промежуткам
Продолжительность промежутка : 24 мс. (0,60 видеокадр)
Время предзагрузки промежутка : 24 мс.

Скриншоты

[cybertorrent.ru].t2139.torrent 
Торрент: Зарегистрирован [ 2018-02-16 11:35 ] · EFC0BFC9F8EEBDD038A42138C866CEE023EEDBD0

Скачать .torrent

Скачать

96 KB

Статус: проверено
Скачан: 0 раз
Размер: 17,61 GB
Профиль [ЛС]
Показать сообщения:    

Текущее время: 24-Сен 16:59

Часовой пояс: UTC ± 0



Вы не можете начинать темы
Вы не можете отвечать на сообщения
Вы не можете редактировать свои сообщения
Вы не можете удалять свои сообщения
Вы не можете голосовать в опросах
Вы не можете прикреплять файлы к сообщениям
Вы можете скачивать файлы
Torrents24.ru открытый BitTorrent Torrents24.pl открытый BitTorrent CyberTorrent.ru открытый BitTorrent BtList.ru рейтинг BitTorrent трекеров Яндекс.Метрика