Статистика раздачи
Нет
 
     
 
 

K15 ®

Пол:
Мужской
Стаж:
8 месяцев 28 дней
Сообщений:
172

Информация о фильме
Название: Полное уничтожение
Оригинальное название: Hard Kill
Год выхода: 2020
Жанр: Боевик, триллер
Режиссер: Мэтт Эскандари
В ролях: Брюс Уиллис, Джесси Меткалф, Серджо Риццуто, Лорин Кент, Тексас Бэттл, Натали Эва Мари, Свен Теммел, Тайлер Джон Олсон, Александр Экерт, Лесли Эмметт

О фильме: История миллиардера Донована Чалмерса, который является основателем и генеральным директором крупной IT-корпорации, где разрабатывается секретная компьютерная программа способная изменить мир. Мужчина ценит свое изобретение и даже для охраны нанимает группу опытных наемников, но забывает защитить собственную семью. Вскоре команда террористов похищают его дочь с целью завладеть программой и применить для теракта. Теперь у Донована остаются считанные часы, чтобы предотвратить уничтожения государства и спасти дочь...
Страна: США
Студия: Emmett/Furla/Oasis Films (EFO Films), BondIt Media Capital, Buffalo 8 Productions
Продолжительность: 01:38:22
Перевод: Дублированный | iTunes
Качество: BDRemux 1080p
Видео: MPEG-4 AVC, 1920x1080, 23.0 Mbit/s, 23.976 fps
Аудио #01: 48 kHz, AC3, 5.1, 384 Kbps | iTunes | RUS |
Аудио #02: 48 kHz, DTS-HD MA, 5.1, 1802 Kbps | Оригинал | ENG |
Субтитры: Английские

MI

General
Unique ID : 122372324773677622883897613714711242620 (0x5C100D6E51C4B327CC05B84C868DE77C)
Complete name : D:Video111Hard.Kill.2020.BDREMUX.1080p.seleZen.mkv
Format : Matroska
Format version : Version 4
File size : 17.3 GiB
Duration : 1 h 38 min
Overall bit rate mode : Variable
Overall bit rate : 25.2 Mb/s
Movie name : Hard Kill 2020 from селезень
Encoded date : UTC 2020-09-18 00:45:30
Writing application : mkvmerge v40.0.0 ('Old Town Road + Pony') 64-bit
Writing library : libebml v1.3.9 + libmatroska v1.5.2
Video
ID : 1
Format : AVC
Format/Info : Advanced Video Codec
Format profile : High@L4.1
Format settings : CABAC / 3 Ref Frames
Format settings, CABAC : Yes
Format settings, Reference : 3 frames
Codec ID : V_MPEG4/ISO/AVC
Duration : 1 h 38 min
Bit rate mode : Variable
Bit rate : 23.0 Mb/s
Maximum bit rate : 35.0 Mb/s
Width : 1 920 pixels
Height : 1 080 pixels
Display aspect ratio : 16:9
Frame rate mode : Constant
Frame rate : 23.976 (24000/1001) FPS
Standard : NTSC
Color space : YUV
Chroma subsampling : 4:2:0
Bit depth : 8 bits
Scan type : Progressive
Bits/(Pixel*Frame) : 0.462
Stream size : 15.8 GiB (91%)
Language : English
Default : Yes
Forced : No
Color range : Limited
Color primaries : BT.709
Transfer characteristics : BT.709
Matrix coefficients : BT.709
Audio #1
ID : 2
Format : AC-3
Format/Info : Audio Coding 3
Commercial name : Dolby Digital
Codec ID : A_AC3
Duration : 1 h 38 min
Bit rate mode : Constant
Bit rate : 384 kb/s
Channel(s) : 6 channels
Channel layout : L R C LFE Ls Rs
Sampling rate : 48.0 kHz
Frame rate : 31.250 FPS (1536 SPF)
Compression mode : Lossy
Stream size : 270 MiB (2%)
Title : iTunes
Language : Russian
Service kind : Complete Main
Default : Yes
Forced : Yes
Audio #2
ID : 3
Format : DTS XLL
Format/Info : Digital Theater Systems
Commercial name : DTS-HD Master Audio
Codec ID : A_DTS
Duration : 1 h 38 min
Bit rate mode : Variable
Bit rate : 1 802 kb/s
Channel(s) : 6 channels
Channel layout : C L R Ls Rs LFE
Sampling rate : 48.0 kHz
Frame rate : 93.750 FPS (512 SPF)
Bit depth : 16 bits
Compression mode : Lossless
Stream size : 1.24 GiB (7%)
Title : Original
Language : English
Default : No
Forced : No
Text #1
ID : 4
Format : UTF-8
Codec ID : S_TEXT/UTF8
Codec ID/Info : UTF-8 Plain Text
Duration : 1 h 30 min
Bit rate : 39 b/s
Count of elements : 1009
Stream size : 26.5 KiB (0%)
Title : Full
Language : English
Default : No
Forced : No
Text #2
ID : 5
Format : UTF-8
Codec ID : S_TEXT/UTF8
Codec ID/Info : UTF-8 Plain Text
Duration : 1 h 30 min
Bit rate : 44 b/s
Count of elements : 1138
Stream size : 29.5 KiB (0%)
Title : SDH
Language : English
Default : No
Forced : No
Menu
00:00:00.000 : en:Chapter 01
00:16:13.597 : en:Chapter 02
00:34:51.964 : en:Chapter 03
00:53:57.776 : en:Chapter 04
01:09:15.025 : en:Chapter 05
01:30:02.522 : en:Chapter 06
Релиз: Присоединяйся к:
Профиль [ЛС]
Показать сообщения:    

Текущее время: 20-Окт 05:58

Часовой пояс: UTC ± 0



Вы не можете начинать темы
Вы не можете отвечать на сообщения
Вы не можете редактировать свои сообщения
Вы не можете удалять свои сообщения
Вы не можете голосовать в опросах
Вы не можете прикреплять файлы к сообщениям
Вы не можете скачивать файлы