Статистика раздачи
Нет
 
     
 
 

K15 ®

Пол:
Мужской
Стаж:
9 месяцев 7 дней
Сообщений:
192

Информация о фильме
Название: Спасти панду
Оригинальное название: Miseuteo Ju: sarajin VIP / Mr. Zoo: The Missing VIP
Год выхода: 2020
Жанр: Комедия, боевик, фэнтези
Режиссер: Тэ Юн Ким
В ролях: Сон Мин Ли, Со Хён Ким (II), Со Вон Каль, Чжон Нам Пэ, Ха Гюн Син, Ин На Ю, Су Ми Ким, Сон Гён Ли, Чон Ын Ли, Сун Чжэ Ли, Бо Сон Ким, Хун Сон, Ингу

О фильме: На 25-летие дипломатических отношений Китай присылает в Южную Корею панду Минмин. Сотрудник спецслужб Чу, который не особо любит животных, но рассчитывает на повышение, вызывается охранять панду. Сразу после прибытия в зоопарк Минмин похищают неизвестные, а сам мужчина неудачно ударяется головой — теперь он может понимать, чего хотят от него животные. Особого уровня взаимопонимания ему придётся достичь со служебной овчаркой Али, которая запомнила злоумышленников и не только поможет найти важного зверя, но и станет агенту Чу настоящим другом.
Страна: Южная Корея
Студия: Korea Investment Partners, Leeyang Film, LiTTLE BiG PiCTURES, Megabox Plus M
Продолжительность: 01:53:21
Перевод: Дублированный | iTunes
Качество: WEB-DL 1080p
Видео: MPEG-4 AVC, 1920x806, 4518 Кbit/s, 24.000 fps
Аудио: 48 kHz, AC3, 5.1, 384 Kbps | iTunes | RUS |
Субтитры: Нет

MI

General
Unique ID : 32933314237288366524730545123001751367 (0x18C6B9C14C6989D742AD96068659D747)
Complete name : D:Video111Mr.Zoo.The.Missing.VIP.WEB-DL.1080p.seleZen.mkv
Format : Matroska
Format version : Version 4
File size : 3.88 GiB
Duration : 1 h 53 min
Overall bit rate : 4 903 kb/s
Movie name : Mr. Zoo The Missing VIP 2020 from селезень
Encoded date : UTC 2020-09-17 18:28:53
Writing application : mkvmerge v40.0.0 ('Old Town Road + Pony') 64-bit
Writing library : libebml v1.3.9 + libmatroska v1.5.2
Video
ID : 1
Format : AVC
Format/Info : Advanced Video Codec
Format profile : High@L4
Format settings : CABAC / 5 Ref Frames
Format settings, CABAC : Yes
Format settings, Reference : 5 frames
Codec ID : V_MPEG4/ISO/AVC
Duration : 1 h 53 min
Bit rate : 4 518 kb/s
Width : 1 920 pixels
Height : 806 pixels
Display aspect ratio : 2.40:1
Frame rate mode : Constant
Frame rate : 24.000 FPS
Color space : YUV
Chroma subsampling : 4:2:0
Bit depth : 8 bits
Scan type : Progressive
Bits/(Pixel*Frame) : 0.122
Stream size : 3.58 GiB (92%)
Language : English
Default : Yes
Forced : No
Color range : Limited
Color primaries : BT.709
Transfer characteristics : BT.709
Matrix coefficients : BT.709
Audio
ID : 2
Format : AC-3
Format/Info : Audio Coding 3
Commercial name : Dolby Digital
Codec ID : A_AC3
Duration : 1 h 53 min
Bit rate mode : Constant
Bit rate : 384 kb/s
Channel(s) : 6 channels
Channel layout : L R C LFE Ls Rs
Sampling rate : 48.0 kHz
Frame rate : 31.250 FPS (1536 SPF)
Compression mode : Lossy
Stream size : 311 MiB (8%)
Title : iTunes
Language : Russian
Service kind : Complete Main
Default : Yes
Forced : Yes
Menu
00:00:00.000 : en:Глава 1
00:09:19.708 : en:Глава 2
00:17:36.708 : en:Глава 3
00:25:57.374 : en:Глава 4
00:34:18.124 : en:Глава 5
00:42:37.040 : en:Глава 6
00:51:15.748 : en:Глава 7
00:59:35.623 : en:Глава 8
01:07:25.414 : en:Глава 9
01:15:27.247 : en:Глава 10
01:23:33.955 : en:Глава 11
01:32:32.038 : en:Глава 12
01:41:15.704 : en:Глава 13
Релиз: Присоединяйся к:
Профиль [ЛС]
Показать сообщения:    

Текущее время: 30-Окт 14:12

Часовой пояс: UTC ± 0



Вы не можете начинать темы
Вы не можете отвечать на сообщения
Вы не можете редактировать свои сообщения
Вы не можете удалять свои сообщения
Вы не можете голосовать в опросах
Вы не можете прикреплять файлы к сообщениям
Вы не можете скачивать файлы