Статистика раздачи
Нет
 
     
 
 

K15 ®

Пол:
Мужской
Стаж:
9 месяцев 5 дней
Сообщений:
192

Информация о фильме
Название: Любовь на троих
Оригинальное название: Endings, Beginnings
Год выхода: 2019
Жанр: Драма
Режиссер: Дрейк Доримус
В ролях: Шейлин Вудли, Джейми Дорнан, Себастьян Стэн, Мэттью Грей Гублер, Линдсей Слоун, Шамир Андерсон, Шерри Кола, Уэнди Мэлик, Кира Седжвик, Дженис ЛиЭнн Браун

О фильме: Как выбрать? Первый - бунтарь и плохиш, непредсказуемый и рисковый Фрэнк, второй - чуткий и внимательный интеллектуал Джек. Два полюса, между которыми разрывается художница Дафна, словно проживая две разные версии своей жизни. Пришло время сделать выбор, но сможет ли она?
Страна: США, Корея Южная
Студия: CJ Entertainment, Protagonist Pictures
Продолжительность: 01:50:04
Перевод: Дублированный | iTunes
Качество: WEB-DL 1080p
Видео: MPEG-4 AVC, 1920x808, 4558 Kbit/s, 24.000 fps
Аудио: 48 kHz, AC3, 5.1, 384 Kbps | iTunes | RUS |
Субтитры: Отсутсвуют

MI

General
Unique ID : 106436186486772408563018558643626861706 (0x5012DD26B940B00397E9E58554D0648A)
Complete name : D:Video111Endings,.Beginnings.2019.WEB-DL.1080p.seleZen.mkv
Format : Matroska
Format version : Version 4
File size : 3.80 GiB
Duration : 1 h 50 min
Overall bit rate : 4 944 kb/s
Movie name : Endings, Beginnings 2019 from селезень
Encoded date : UTC 2020-09-17 17:29:53
Writing application : mkvmerge v40.0.0 ('Old Town Road + Pony') 64-bit
Writing library : libebml v1.3.9 + libmatroska v1.5.2
Video
ID : 1
Format : AVC
Format/Info : Advanced Video Codec
Format profile : High@L4
Format settings : CABAC / 5 Ref Frames
Format settings, CABAC : Yes
Format settings, Reference : 5 frames
Codec ID : V_MPEG4/ISO/AVC
Duration : 1 h 50 min
Bit rate : 4 558 kb/s
Width : 1 920 pixels
Height : 808 pixels
Display aspect ratio : 2.40:1
Frame rate mode : Constant
Frame rate : 24.000 FPS
Color space : YUV
Chroma subsampling : 4:2:0
Bit depth : 8 bits
Scan type : Progressive
Bits/(Pixel*Frame) : 0.122
Stream size : 3.50 GiB (92%)
Language : English
Default : Yes
Forced : No
Color range : Limited
Color primaries : BT.709
Transfer characteristics : BT.709
Matrix coefficients : BT.709
Audio
ID : 2
Format : AC-3
Format/Info : Audio Coding 3
Commercial name : Dolby Digital
Codec ID : A_AC3
Duration : 1 h 50 min
Bit rate mode : Constant
Bit rate : 384 kb/s
Channel(s) : 6 channels
Channel layout : L R C LFE Ls Rs
Sampling rate : 48.0 kHz
Frame rate : 31.250 FPS (1536 SPF)
Compression mode : Lossy
Stream size : 302 MiB (8%)
Title : iTunes
Language : Russian
Service kind : Complete Main
Default : Yes
Forced : Yes
Menu
00:00:00.000 : en:Глава 1
00:08:39.708 : en:Глава 2
00:13:03.749 : en:Глава 3
00:20:03.332 : en:Глава 4
00:28:32.332 : en:Глава 5
00:36:21.165 : en:Глава 6
00:44:38.040 : en:Глава 7
00:51:29.790 : en:Глава 8
01:01:10.123 : en:Глава 9
01:10:25.539 : en:Глава 10
01:15:25.039 : en:Глава 11
01:22:35.205 : en:Глава 12
01:30:33.621 : en:Глава 13
01:35:46.246 : en:Глава 14
01:41:46.454 : en:Глава 15
Релиз: Присоединяйся к:
Профиль [ЛС]
Показать сообщения:    

Текущее время: 27-Окт 20:53

Часовой пояс: UTC ± 0



Вы не можете начинать темы
Вы не можете отвечать на сообщения
Вы не можете редактировать свои сообщения
Вы не можете удалять свои сообщения
Вы не можете голосовать в опросах
Вы не можете прикреплять файлы к сообщениям
Вы не можете скачивать файлы