Статистика раздачи
Нет
 
     
 
 

K15 ®

Пол:
Мужской
Стаж:
8 месяцев 28 дней
Сообщений:
172

Информация о фильме
Название: В ожидании варваров
Оригинальное название: Waiting for the Barbarians
Год выпуска: 2019
Жанр: Драма
Выпущено: Италия, США, Iervolino Entertainment, Ithaca Pictures
Режиссер: Сиро Герра
В ролях: Марк Райлэнс, Джонни Депп, Роберт Паттинсон, Гана Баярсайкан, Грета Скакки, Давид Денсик, Сэм Рид, Гарри Меллинг, Билл Милнер, Далхсурен Гурсэд
О фильме: Спокойная жизнь магистрата маленького городка на границе империи прерывается приездом полковника Джолла, который должен проверить слухи о том, что коренные народы, которых колонизаторы называют варварами, готовят нападение на город. Сначала Джолл пытает двух пленников, посаженных по обвинению в краже овец, а затем организует экспедицию на земли варваров. В результате похода тюрьма городка переполняется пленёнными, и полковник со своими подручными устраивает массовые «допросы». Магистрату всё это очень не нравится.

Качество: BDRip (1080p)
Видео: MPEG-4 AVC, 8048 Кбит/с, 1920x804, 23.976 кадр/с
Аудио: Русский (AC3, 6 ch, 348 Кбит/с), английский (DTS, 6 ch, 1509 Кбит/с)
Размер: 7.89 ГБ
Продолжительность: 01:53:25
Перевод: Дублированный
Субтитры: Русские, английские
Озвучивание - Дублированное (iTunes)
Сохранены оригинальные чаптеры как на Blu-Ray.

x264

x264 [info]: frame I:1040 Avg QP:15.33 size:258994
x264 [info]: frame P:32615 Avg QP:18.07 size: 88324
x264 [info]: frame B:129849 Avg QP:19.75 size: 28519
x264 [info]: consecutive B-frames: 1.9% 2.2% 6.4% 16.3% 14.6% 26.0% 10.8% 15.3% 3.2% 1.3% 2.0%
x264 [info]: mb I I16..4: 9.8% 76.8% 13.4%
x264 [info]: mb P I16..4: 0.7% 13.9% 1.2% P16..4: 27.9% 32.3% 14.6% 1.9% 0.1% skip: 7.3%
x264 [info]: mb B I16..4: 0.1% 0.9% 0.1% B16..8: 33.0% 19.1% 4.0% direct: 6.9% skip:36.0% L0:43.2% L1:44.0% BI:12.8%
x264 [info]: 8x8 transform intra:85.2% inter:56.9%
x264 [info]: direct mvs spatial:99.0% temporal:1.0%
x264 [info]: coded y,uvDC,uvAC intra: 87.6% 85.2% 70.6% inter: 30.7% 26.4% 9.0%
x264 [info]: i16 v,h,dc,p: 55% 12% 14% 19%
x264 [info]: i8 v,h,dc,ddl,ddr,vr,hd,vl,hu: 10% 7% 19% 10% 12% 11% 10% 11% 11%
x264 [info]: i4 v,h,dc,ddl,ddr,vr,hd,vl,hu: 36% 7% 14% 6% 9% 8% 7% 7% 7%
x264 [info]: i8c dc,h,v,p: 45% 25% 16% 14%
x264 [info]: Weighted P-Frames: Y:5.6% UV:2.6%
x264 [info]: ref P L0: 44.7% 10.7% 25.0% 8.7% 9.9% 1.1% 0.1%
x264 [info]: ref B L0: 73.6% 18.8% 5.6% 1.9%
x264 [info]: ref B L1: 92.2% 7.8%
x264 [info]: kb/s:8039.58

Инфо-файл

Общее
Уникальный идентификатор : 249214355006263302004675157367902596152 (0xBB7CF05AF2F093C88F79C4985EA26C38)
Полное имя : D:ЗагрузкиWaiting.For.The.Barbarians.2019.x264.BDRip.(1080p).OlLanDGroup.mkv
Формат : Matroska
Версия формата : Version 4 / Version 2
Размер файла : 7,89 Гбайт
Продолжительность : 1 ч. 53 м.
Общий поток : 9935 Кбит/сек
Название фильма : В ожидании варваров.2019.Rip by: ollan
Дата кодирования : UTC 2020-08-31 20:39:14
Программа кодирования : mkvmerge v6.5.0 ('Isn't she lovely') built on Oct 20 2013 12:50:05
Библиотека кодирования : libebml v1.3.0 + libmatroska v1.4.1
Обложка : Yes
Attachments : Cover - Waiting.For.The.Barbarians.png
Видео
Идентификатор : 1
Формат : AVC
Формат/Информация : Advanced Video Codec
Профиль формата : High@L4.1
Настройки формата : CABAC / 5 Ref Frames
Параметр CABAC формата : Да
Параметр ReFrames формата : 5 кадров
Идентификатор кодека : V_MPEG4/ISO/AVC
Продолжительность : 1 ч. 53 м.
Битрейт : 8048 Кбит/сек
Ширина : 1920 пикселей
Высота : 804 пикселя
Соотношение сторон : 2,40:1
Режим частоты кадров : Постоянный
Частота кадров : 23,976 (24000/1001) кадра/сек
Цветовое пространство : YUV
Субдискретизация насыщенности : 4:2:0
Битовая глубина : 8 бит
Тип развёртки : Прогрессивная
Бит/(Пиксели*Кадры) : 0.217
Размер потока : 6,23 Гбайт (79%)
Библиотека кодирования : x264 core 146 r2538 121396c
Настройки программы : cabac=1 / ref=5 / deblock=1:-3:-3 / analyse=0x3:0x133 / me=umh / subme=11 / psy=1 / psy_rd=0.95:0.05 / mixed_ref=1 / me_range=64 / chroma_me=1 / trellis=2 / 8x8dct=1 / cqm=0 / deadzone=21,11 / fast_pskip=0 / chroma_qp_offset=-3 / threads=12 / lookahead_threads=3 / sliced_threads=0 / nr=0 / decimate=0 / interlaced=0 / bluray_compat=0 / constrained_intra=0 / bframes=10 / b_pyramid=2 / b_adapt=2 / b_bias=0 / direct=3 / weightb=1 / open_gop=0 / weightp=2 / keyint=240 / keyint_min=23 / scenecut=40 / intra_refresh=0 / rc_lookahead=40 / rc=2pass / mbtree=0 / bitrate=8048 / ratetol=1.0 / qcomp=0.60 / qpmin=0 / qpmax=69 / qpstep=4 / cplxblur=20.0 / qblur=0.5 / vbv_maxrate=50000 / vbv_bufsize=62500 / nal_hrd=none / filler=0 / ip_ratio=1.40 / pb_ratio=1.30 / aq=1:1.00
Язык : English
Default : Да
Forced : Нет
Аудио #1
Идентификатор : 2
Формат : AC-3
Формат/Информация : Audio Coding 3
Идентификатор кодека : A_AC3
Продолжительность : 1 ч. 53 м.
Вид битрейта : Постоянный
Битрейт : 384 Кбит/сек
Каналы : 6 каналов
Расположение каналов : Front: L C R, Side: L R, LFE
Частота : 48,0 КГц
Частота кадров : 31,250 кадров/сек (1536 SPF)
Битовая глубина : 16 бит
Метод сжатия : С потерями
Размер потока : 312 Мбайт (4%)
Заголовок : iTunes Russia
Язык : Russian
Service kind : Complete Main
Default : Да
Forced : Нет
Аудио #2
Идентификатор : 3
Формат : DTS
Формат/Информация : Digital Theater Systems
Идентификатор кодека : A_DTS
Продолжительность : 1 ч. 53 м.
Вид битрейта : Постоянный
Битрейт : 1509 Кбит/сек
Каналы : 6 каналов
Расположение каналов : Front: L C R, Side: L R, LFE
Частота : 48,0 КГц
Частота кадров : 93,750 кадра/сек (512 SPF)
Битовая глубина : 24 бит
Метод сжатия : С потерями
Размер потока : 1,20 Гбайт (15%)
Язык : English
Default : Нет
Forced : Нет
Текст #1
Идентификатор : 4
Формат : UTF-8
Идентификатор кодека : S_TEXT/UTF8
Идентификатор кодека/Информация : UTF-8 Plain Text
Заголовок : Forced
Язык : Russian
Default : Да
Forced : Нет
Текст #2
Идентификатор : 5
Формат : UTF-8
Идентификатор кодека : S_TEXT/UTF8
Идентификатор кодека/Информация : UTF-8 Plain Text
Заголовок : Full
Язык : Russian
Default : Нет
Forced : Нет
Текст #3
Идентификатор : 6
Формат : UTF-8
Идентификатор кодека : S_TEXT/UTF8
Идентификатор кодека/Информация : UTF-8 Plain Text
Заголовок : Full
Язык : English
Default : Нет
Forced : Нет
Меню
00:00:00.000 : en:Chapter 01
00:08:23.670 : en:Chapter 02
00:17:46.440 : en:Chapter 03
00:29:12.000 : en:Chapter 04
00:38:37.440 : en:Chapter 05
00:46:11.768 : en:Chapter 06
00:57:13.221 : en:Chapter 07
01:04:04.298 : en:Chapter 08
01:13:22.981 : en:Chapter 09
01:19:39.942 : en:Chapter 10
01:30:58.619 : en:Chapter 11
01:40:57.051 : en:Chapter 12

Скриншоты



Релиз от: Rip by:
Профиль [ЛС]
Показать сообщения:    

Текущее время: 20-Окт 05:41

Часовой пояс: UTC ± 0



Вы не можете начинать темы
Вы не можете отвечать на сообщения
Вы не можете редактировать свои сообщения
Вы не можете удалять свои сообщения
Вы не можете голосовать в опросах
Вы не можете прикреплять файлы к сообщениям
Вы не можете скачивать файлы