Статистика раздачи
Нет
 
     
 
 

K15 ®

Пол:
Мужской
Стаж:
8 месяцев 28 дней
Сообщений:
172

Информация о фильме
Название: Защитник / Только правда
Оригинальное название: The Whole Truth
Год выпуска: 2016
Жанр: Триллер, драма, детектив
Выпущено: США, Atlas Entertainment
Режиссер: Кортни Хант
В ролях: Киану Ривз, Рене Зеллвегер, Гугу Мбата-Роу, Шон Бриджерс, Джеймс Белуши, Кеннет Чои, Гэбриел Бассо, Кристофер Берри, Томас Мерфи, Лара Грайс
О фильме: Убит богатый банкир. Полиция застает его сына рядом с телом. Доказательства кажутся неопровержимыми, и подросток оказывается под следствием. За дело берется адвокат Ричард Рэмси. Желая докопаться до истины, он сам оказывается в смертельной опасности.

Качество: BDRip (1080p)
Видео: MPEG-4 AVC, 9067 Кбит/с, 1920x804, 23.976 кадр/с
Аудио: Русский (AC3, 6 ch, 348 Кбит/с), английский (DTS, 6 ch, 1509 Кбит/с)
Размер: 7.16 ГБ
Продолжительность: 01:33:50
Перевод: Профессиональный многоголосый
Субтитры: Английские
Озвучивание - Профессиональное многоголосое (iTunes)
Сохранены оригинальные чаптеры как на Blu-Ray.

x264

x264 [info]: frame I:997 Avg QP:10.72 size:244108
x264 [info]: frame P:29497 Avg QP:12.91 size: 88756
x264 [info]: frame B:104096 Avg QP:13.70 size: 33545
x264 [info]: consecutive B-frames: 2.0% 2.2% 7.1% 24.8% 16.2% 43.3% 2.1% 0.4% 0.4% 0.3% 1.2%
x264 [info]: mb I I16..4: 28.5% 45.4% 26.0%
x264 [info]: mb P I16..4: 6.4% 17.0% 8.3% P16..4: 21.6% 26.3% 10.1% 2.2% 0.2% skip: 7.9%
x264 [info]: mb B I16..4: 1.5% 4.7% 1.4% B16..8: 26.9% 19.1% 4.2% direct:10.1% skip:32.3% L0:41.9% L1:42.9% BI:15.2%
x264 [info]: 8x8 transform intra:56.6% inter:39.4%
x264 [info]: direct mvs spatial:99.4% temporal:0.6%
x264 [info]: coded y,uvDC,uvAC intra: 86.5% 68.5% 59.1% inter: 30.8% 29.1% 11.5%
x264 [info]: i16 v,h,dc,p: 18% 9% 37% 36%
x264 [info]: i8 v,h,dc,ddl,ddr,vr,hd,vl,hu: 17% 11% 25% 7% 7% 8% 7% 9% 9%
x264 [info]: i4 v,h,dc,ddl,ddr,vr,hd,vl,hu: 31% 11% 25% 5% 6% 6% 5% 5% 5%
x264 [info]: i8c dc,h,v,p: 43% 28% 22% 6%
x264 [info]: Weighted P-Frames: Y:1.0% UV:0.5%
x264 [info]: ref P L0: 48.0% 7.9% 23.7% 9.8% 9.9% 0.6% 0.0%
x264 [info]: ref B L0: 77.2% 15.7% 5.2% 1.9%
x264 [info]: ref B L1: 93.9% 6.1%
x264 [info]: kb/s:9054.27

Инфо-файл

Общее
Уникальный идентификатор : 193180617732703522123351081535233420360 (0x91553BCF9CC5FACD95EF2EF5F1156C48)
Полное имя : D:ЗагрузкиThe.Whole.Truth.2016.x264.BDRip.(1080p).OlLanDGroup.mkv
Формат : Matroska
Версия формата : Version 4 / Version 2
Размер файла : 7,16 Гбайт
Продолжительность : 1 ч. 33 м.
Общий поток : 11,0 Мбит/сек
Название фильма : Защитник / Только правда.2016.Rip by: ollan
Дата кодирования : UTC 2020-08-29 07:45:37
Программа кодирования : mkvmerge v6.5.0 ('Isn't she lovely') built on Oct 20 2013 12:50:05
Библиотека кодирования : libebml v1.3.0 + libmatroska v1.4.1
Обложка : Yes
Attachments : Cover -The.Whole.Truth.png
Видео
Идентификатор : 1
Формат : AVC
Формат/Информация : Advanced Video Codec
Профиль формата : High@L4.1
Настройки формата : CABAC / 5 Ref Frames
Параметр CABAC формата : Да
Параметр ReFrames формата : 5 кадров
Идентификатор кодека : V_MPEG4/ISO/AVC
Продолжительность : 1 ч. 33 м.
Битрейт : 9067 Кбит/сек
Ширина : 1920 пикселей
Высота : 804 пикселя
Соотношение сторон : 2,40:1
Режим частоты кадров : Постоянный
Частота кадров : 23,976 (24000/1001) кадра/сек
Цветовое пространство : YUV
Субдискретизация насыщенности : 4:2:0
Битовая глубина : 8 бит
Тип развёртки : Прогрессивная
Бит/(Пиксели*Кадры) : 0.245
Размер потока : 5,78 Гбайт (81%)
Библиотека кодирования : x264 core 146 r2538 121396c
Настройки программы : cabac=1 / ref=5 / deblock=1:-3:-3 / analyse=0x3:0x133 / me=umh / subme=11 / psy=1 / psy_rd=0.95:0.05 / mixed_ref=1 / me_range=64 / chroma_me=1 / trellis=2 / 8x8dct=1 / cqm=0 / deadzone=21,11 / fast_pskip=0 / chroma_qp_offset=-3 / threads=12 / lookahead_threads=3 / sliced_threads=0 / nr=0 / decimate=0 / interlaced=0 / bluray_compat=0 / constrained_intra=0 / bframes=10 / b_pyramid=2 / b_adapt=2 / b_bias=0 / direct=3 / weightb=1 / open_gop=0 / weightp=2 / keyint=240 / keyint_min=23 / scenecut=40 / intra_refresh=0 / rc_lookahead=40 / rc=2pass / mbtree=0 / bitrate=9067 / ratetol=1.0 / qcomp=0.60 / qpmin=0 / qpmax=69 / qpstep=4 / cplxblur=20.0 / qblur=0.5 / vbv_maxrate=50000 / vbv_bufsize=62500 / nal_hrd=none / filler=0 / ip_ratio=1.40 / pb_ratio=1.30 / aq=1:1.00
Язык : English
Default : Да
Forced : Нет
Аудио #1
Идентификатор : 2
Формат : AC-3
Формат/Информация : Audio Coding 3
Идентификатор кодека : A_AC3
Продолжительность : 1 ч. 33 м.
Вид битрейта : Постоянный
Битрейт : 384 Кбит/сек
Каналы : 6 каналов
Расположение каналов : Front: L C R, Side: L R, LFE
Частота : 48,0 КГц
Частота кадров : 31,250 кадров/сек (1536 SPF)
Битовая глубина : 16 бит
Метод сжатия : С потерями
Размер потока : 257 Мбайт (4%)
Заголовок : iTunes
Язык : Russian
Service kind : Complete Main
Default : Да
Forced : Нет
Аудио #2
Идентификатор : 3
Формат : DTS
Формат/Информация : Digital Theater Systems
Идентификатор кодека : A_DTS
Продолжительность : 1 ч. 33 м.
Вид битрейта : Постоянный
Битрейт : 1509 Кбит/сек
Каналы : 6 каналов
Расположение каналов : Front: L C R, Side: L R, LFE
Частота : 48,0 КГц
Частота кадров : 93,750 кадра/сек (512 SPF)
Битовая глубина : 24 бит
Метод сжатия : С потерями
Размер потока : 1010 Мбайт (14%)
Язык : English
Default : Нет
Forced : Нет
Текст
Идентификатор : 4
Формат : UTF-8
Идентификатор кодека : S_TEXT/UTF8
Идентификатор кодека/Информация : UTF-8 Plain Text
Заголовок : Full
Язык : English
Default : Нет
Forced : Нет
Меню
00:00:00.000 : en:Chapter 01
00:11:46.038 : en:Chapter 02
00:21:55.605 : en:Chapter 03
00:35:39.178 : en:Chapter 04
00:47:48.115 : en:Chapter 05
00:58:18.661 : en:Chapter 06
01:10:01.655 : en:Chapter 07
01:21:45.108 : en:Chapter 08

Скриншоты



Релиз от: Rip by:
Профиль [ЛС]
Показать сообщения:    

Текущее время: 20-Окт 05:20

Часовой пояс: UTC ± 0



Вы не можете начинать темы
Вы не можете отвечать на сообщения
Вы не можете редактировать свои сообщения
Вы не можете удалять свои сообщения
Вы не можете голосовать в опросах
Вы не можете прикреплять файлы к сообщениям
Вы не можете скачивать файлы