Статистика раздачи
Нет
 
     
 
 

K15 ®

Пол:
Мужской
Стаж:
9 месяцев 6 дней
Сообщений:
192

Информация о фильме
Название: Львица
Оригинальное название: Rogue
Год выпуска: 2020
Жанр: Боевик
Выпущено: Великобритания, ЮАР, Grindstone Entertainment Group, Hassell Free Production, Mannequin Pictures
Режиссер: М. Дж. Бассетт
В ролях: Меган Фокс, Джессика Саттон, Филип Уинчестер, Каллиопе Джейн Тейлор, Ли-Энн Либенберг, Брэндон Оре, Грег Крик, Адам Дикон, Тамер Барджаг, Сисанда Хэнна
О фильме: На одной из львиных ферм в Африке, где львов содержат, чтобы потом убить и продать по частям на чёрном рынке, происходит ЧП — львице удаётся сбежать и убить нескольких человек. Неподалёку от этого места отряд наёмников во главе с решительной Сэм высвобождает из заложников дочь губернатора и, уходя от многочисленных и хорошо вооружённых преследователей, находит убежище на той самой заброшенной львиной ферме.

Качество: BDRip (1080p)
Видео: MPEG-4 AVC, 11437 Кбит/с, 1920x804, 23.976 кадр/с
Аудио: Русский (AC3, 6 ch, 448 Кбит/с), английский (DTS, 6 ch, 1509 Кбит/с)
Размер: 8.99 ГБ
Продолжительность: 01:45:59
Перевод: Профессиональный многоголосый
Субтитры: Русские (форс), английские
Озвучивание - Профессиональное многоголосое (HDRezka Studio)
Сохранены оригинальные чаптеры как на Blu-Ray.

x264

x264 [info]: frame I:881 Avg QP:14.45 size:215841
x264 [info]: frame P:42931 Avg QP:16.76 size: 96326
x264 [info]: frame B:108661 Avg QP:18.47 size: 43879
x264 [info]: consecutive B-frames: 7.2% 6.9% 13.3% 17.9% 12.8% 34.7% 2.6% 0.6% 1.0% 1.3% 1.6%
x264 [info]: mb I I16..4: 8.3% 82.1% 9.6%
x264 [info]: mb P I16..4: 2.8% 35.6% 2.1% P16..4: 23.0% 25.2% 6.9% 0.8% 0.1% skip: 3.4%
x264 [info]: mb B I16..4: 0.7% 5.4% 0.3% B16..8: 37.0% 22.3% 3.8% direct: 8.5% skip:22.0% L0:44.3% L1:43.6% BI:12.2%
x264 [info]: 8x8 transform intra:86.6% inter:63.2%
x264 [info]: direct mvs spatial:98.1% temporal:1.9%
x264 [info]: coded y,uvDC,uvAC intra: 84.7% 85.1% 68.0% inter: 37.8% 38.6% 16.1%
x264 [info]: i16 v,h,dc,p: 34% 22% 6% 38%
x264 [info]: i8 v,h,dc,ddl,ddr,vr,hd,vl,hu: 9% 10% 16% 9% 11% 11% 11% 11% 13%
x264 [info]: i4 v,h,dc,ddl,ddr,vr,hd,vl,hu: 28% 15% 17% 5% 8% 7% 8% 5% 7%
x264 [info]: i8c dc,h,v,p: 44% 24% 15% 17%
x264 [info]: Weighted P-Frames: Y:3.4% UV:2.4%
x264 [info]: ref P L0: 49.9% 9.4% 22.2% 8.6% 8.0% 1.9% 0.0%
x264 [info]: ref B L0: 71.1% 20.4% 6.6% 1.8%
x264 [info]: ref B L1: 91.5% 8.5%
x264 [info]: kb/s:11439.39

Инфо-файл

Общее
Уникальный идентификатор : 203401421661388759820013720751350622216 (0x9905B059D73839F5A9D7E00EE2FE2808)
Полное имя : D:ЗагрузкиRogue.2020.x264.BDRip.(1080p).OlLanDGroup.mkv
Формат : Matroska
Версия формата : Version 4 / Version 2
Размер файла : 8,99 Гбайт
Продолжительность : 1 ч. 45 м.
Общий поток : 12,1 Мбит/сек
Название фильма : Львица.2020.Rip by: ollan
Дата кодирования : UTC 2020-08-26 15:56:14
Программа кодирования : mkvmerge v6.5.0 ('Isn't she lovely') built on Oct 20 2013 12:50:05
Библиотека кодирования : libebml v1.3.0 + libmatroska v1.4.1
Обложка : Yes
Attachments : Cover - Rogue.png
Видео
Идентификатор : 1
Формат : AVC
Формат/Информация : Advanced Video Codec
Профиль формата : High@L4.1
Настройки формата : CABAC / 5 Ref Frames
Параметр CABAC формата : Да
Параметр ReFrames формата : 5 кадров
Идентификатор кодека : V_MPEG4/ISO/AVC
Продолжительность : 1 ч. 45 м.
Битрейт : 11,4 Мбит/сек
Ширина : 1920 пикселей
Высота : 804 пикселя
Соотношение сторон : 2,40:1
Режим частоты кадров : Постоянный
Частота кадров : 23,976 (24000/1001) кадра/сек
Цветовое пространство : YUV
Субдискретизация насыщенности : 4:2:0
Битовая глубина : 8 бит
Тип развёртки : Прогрессивная
Бит/(Пиксели*Кадры) : 0.309
Размер потока : 8,29 Гбайт (92%)
Библиотека кодирования : x264 core 146 r2538 121396c
Настройки программы : cabac=1 / ref=5 / deblock=1:-3:-3 / analyse=0x3:0x133 / me=umh / subme=11 / psy=1 / psy_rd=0.95:0.05 / mixed_ref=1 / me_range=64 / chroma_me=1 / trellis=2 / 8x8dct=1 / cqm=0 / deadzone=21,11 / fast_pskip=0 / chroma_qp_offset=-3 / threads=12 / lookahead_threads=3 / sliced_threads=0 / nr=0 / decimate=0 / interlaced=0 / bluray_compat=0 / constrained_intra=0 / bframes=10 / b_pyramid=2 / b_adapt=2 / b_bias=0 / direct=3 / weightb=1 / open_gop=0 / weightp=2 / keyint=240 / keyint_min=23 / scenecut=40 / intra_refresh=0 / rc_lookahead=40 / rc=2pass / mbtree=0 / bitrate=11437 / ratetol=1.0 / qcomp=0.60 / qpmin=0 / qpmax=69 / qpstep=4 / cplxblur=20.0 / qblur=0.5 / vbv_maxrate=50000 / vbv_bufsize=62500 / nal_hrd=none / filler=0 / ip_ratio=1.40 / pb_ratio=1.30 / aq=1:1.00
Язык : English
Default : Да
Forced : Нет
Аудио #1
Идентификатор : 2
Формат : AC-3
Формат/Информация : Audio Coding 3
Идентификатор кодека : A_AC3
Продолжительность : 1 ч. 45 м.
Вид битрейта : Постоянный
Битрейт : 448 Кбит/сек
Каналы : 6 каналов
Расположение каналов : Front: L C R, Side: L R, LFE
Частота : 48,0 КГц
Частота кадров : 31,250 кадров/сек (1536 SPF)
Битовая глубина : 16 бит
Метод сжатия : С потерями
Размер потока : 340 Мбайт (4%)
Заголовок : HDRezka Studio
Язык : Russian
Service kind : Complete Main
Default : Да
Forced : Нет
Аудио #2
Идентификатор : 3
Формат : AC-3
Формат/Информация : Audio Coding 3
Идентификатор кодека : A_AC3
Продолжительность : 1 ч. 45 м.
Вид битрейта : Постоянный
Битрейт : 256 Кбит/сек
Каналы : 2 канала
Расположение каналов : Front: L R
Частота : 48,0 КГц
Частота кадров : 31,250 кадров/сек (1536 SPF)
Битовая глубина : 16 бит
Метод сжатия : С потерями
Размер потока : 194 Мбайт (2%)
Язык : English
Service kind : Complete Main
Default : Нет
Forced : Нет
Текст #1
Идентификатор : 4
Формат : UTF-8
Идентификатор кодека : S_TEXT/UTF8
Идентификатор кодека/Информация : UTF-8 Plain Text
Заголовок : Forced
Язык : Russian
Default : Да
Forced : Нет
Текст #2
Идентификатор : 5
Формат : UTF-8
Идентификатор кодека : S_TEXT/UTF8
Идентификатор кодека/Информация : UTF-8 Plain Text
Заголовок : Full
Язык : English
Default : Нет
Forced : Нет
Меню
00:00:00.000 : en:Chapter 01
00:04:05.495 : en:Chapter 02
00:10:55.446 : en:Chapter 03
00:22:56.125 : en:Chapter 04
00:29:20.884 : en:Chapter 05
00:35:27.292 : en:Chapter 06
00:42:17.785 : en:Chapter 07
00:48:10.096 : en:Chapter 08
00:55:41.129 : en:Chapter 09
00:59:56.510 : en:Chapter 10
01:06:03.168 : en:Chapter 11
01:11:49.305 : en:Chapter 12
01:19:04.406 : en:Chapter 13
01:21:53.450 : en:Chapter 14
01:29:26.903 : en:Chapter 15
01:34:17.527 : en:Chapter 16

Скриншоты



Релиз от: Rip by:
Профиль [ЛС]
Показать сообщения:    

Текущее время: 29-Окт 08:08

Часовой пояс: UTC ± 0



Вы не можете начинать темы
Вы не можете отвечать на сообщения
Вы не можете редактировать свои сообщения
Вы не можете удалять свои сообщения
Вы не можете голосовать в опросах
Вы не можете прикреплять файлы к сообщениям
Вы не можете скачивать файлы