Статистика раздачи
Размер:  745 MB   |    Зарегистрирован:  3 месяца 12 дней   |    Скачан:  0 раз

Полного источника не было: Никогда

Личеров:  1  [  0 KB/s  ]  
 
   
 
 

lopster ®

Пол:
Не указан
Стаж:
3 месяца 12 дней
Сообщений:
612

Весьегонская волчица«Человек. Волк. Природа. Кто кого?»
Жанр: драма
Год выпуска: 2004
Продолжительность: 01:41:03
Режиссёр: Николай Соловцов
В ролях: Олег Фомин, Елена Дробышева, Владимир Гостюхин, Лев Дуров, Лев Борисов, Александр Тютин, Наталья Казначеева, Ирина Савина, Алексей Хардиков, Геннадий Галкин, Маша Вишнякова
Описание: Остросюжетная драма по мотивам одноименной повести Бориса Воробьева. Егор - потомственный охотник на волков. Он живет, как жили его предки: растит дочь, любит лес, отстреливает хищников. Но однажды на его пути появляется вожак стаи - умная, сильная, опытная, а потому крайне опасная волчица. Человеку и зверю придется пройти через множество ситуаций, которые будут менять их обоих. Месть, ненависть, любовь, предательство, стремление понять друг друга и невозможность договориться - все эти чувства переживут вместе с главными героями и жители небольшой российской деревушки...
Доп. информация:

Рип: waarheid
Сэмпл:

Качество видео: DVDRip [Исходник: DVD5]
Формат видео: AVI
Видео: 640x384 (1.67:1), 25 fps, XviD build 73 ~893 kbps avg, 0.14 bit/pixel
Аудио: 48 kHz, MPEG Layer 3, 2 ch, ~128.00 kbps avg

MediaInfo

Общее
Полное имя : Весьегонская волчица.2004_DVDRip_by_waarheid.avi
Формат : AVI
Формат/Информация : Audio Video Interleave
Размер файла : 745 Мбайт
Продолжительность : 1 ч. 41 м.
Общий поток : 1031 Кбит/сек
Программа кодирования : VirtualDubMod 1.5.10.3 | www.virtualdub-fr.org || (build 2550/release)
Видео
Идентификатор : 0
Формат : MPEG-4 Visual
Профиль формата : Advanced Simple@L5
Параметр BVOP формата : 1
Параметр QPel формата : Нет
Параметр GMC формата : Без точки перехода
Параметр матрицы формата : Выборочная
Идентификатор кодека : XVID
Идентификатор кодека/Подсказка : XviD
Продолжительность : 1 ч. 41 м.
Битрейт : 894 Кбит/сек
Ширина : 640 пикселей
Высота : 384 пикселя
Соотношение сторон : 5:3
Частота кадров : 25,000 кадров/сек
Цветовое пространство : YUV
Субдискретизация насыщенности : 4:2:0
Битовая глубина : 8 бит
Тип развёртки : Прогрессивная
Метод сжатия : С потерями
Бит/(Пиксели*Кадры) : 0.145
Размер потока : 646 Мбайт (87%)
Библиотека кодирования : XviD 73
Аудио
Идентификатор : 1
Формат : MPEG Audio
Версия формата : Version 1
Профиль формата : Layer 3
Идентификатор кодека : 55
Идентификатор кодека/Подсказка : MP3
Продолжительность : 1 ч. 41 м.
Вид битрейта : Постоянный
Битрейт : 128 Кбит/сек
Каналы : 2 канала
Частота : 48,0 КГц
Метод сжатия : С потерями
Размер потока : 92,5 Мбайт (12%)
Выравнивание : Соединение по промежуткам
Продолжительность промежутка : 40 мс. (1,00 видеокадр)
Время предзагрузки промежутка : 504 мс.
Библиотека кодирования : LAME3.99r
Настройки программы : -m s -V 4 -q 2 -lowpass 17 -b 128

Скриншот c названием фильма

Скриншоты

[cybertorrent.ru].t214.torrent 
Торрент: Зарегистрирован [ 2018-02-15 15:34 ] · 1716ADB8CE36B47EC818C2F68261032DF1F0CB21

Скачать .torrent

Скачать

15 KB

Статус: проверено
Скачан: 0 раз
Размер: 745 MB
Профиль [ЛС]
Показать сообщения:    

Текущее время: 28-Май 08:09

Часовой пояс: UTC ± 0



Вы не можете начинать темы
Вы не можете отвечать на сообщения
Вы не можете редактировать свои сообщения
Вы не можете удалять свои сообщения
Вы не можете голосовать в опросах
Вы не можете прикреплять файлы к сообщениям
Вы можете скачивать файлы