Статистика раздачи
Нет
 
     
 
 

K15 ®

Пол:
Мужской
Стаж:
8 месяцев 28 дней
Сообщений:
172

Информация о фильме
Название: Удивительный мир Марвена
Оригинальное название: Welcome to Marwen
Год выпуска: 2018
Жанр: Фэнтези, драма, комедия, биография
Выпущено: США, Canadian Film or Video Production Tax Credit (CPTC), DreamWorks, ImageMovers
Режиссер: Роберт Земекис
В ролях: Стив Карелл, Фальк Хеншел, Мэтт О`Лири, Николай Вич, Патрик Роккас, Александр Лоу, Эйса Гонсалес, Лесли Земекис, Мерритт Уивер, Гвендолин Кристи
О фильме: История о жертве уличного нападения Марке Хоганкэмпе, который оправлялся от психологической травмы с помощью «кукольной» терапии. Во дворе своего дома он выстроил игрушечный город времён Второй мировой войны и населил его фигурками, похожими на реальных людей из своего прошлого.

Качество: BDRip (1080p)
Видео: MPEG-4 AVC, 7393 Кбит/с, 1920x804, 23.976 кадр/с
Аудио: Русский (AC3, 6 ch, 640 Кбит/с), (AC3, 2 ch, 256 Кбит/с), английский (DTS, 6 ch, 1509 Кбит/с)
Размер: 7.94 ГБ
Продолжительность: 01:55:56
Перевод: Дублированный, профессиональный многоголосый
Субтитры: Русские, английские
Озвучивание - Дублированное (Лицензия), профессиональное многоголосое (HDRezka Studio)
Сохранены оригинальные чаптеры как на Blu-Ray.

x264

x264 [info]: frame I:1017 Avg QP:13.58 size:245750
x264 [info]: frame P:38858 Avg QP:16.43 size: 74969
x264 [info]: frame B:126917 Avg QP:17.45 size: 25749
x264 [info]: consecutive B-frames: 3.3% 6.1% 9.5% 11.7% 13.3% 43.7% 6.3% 2.0% 1.8% 1.3% 1.1%
x264 [info]: mb I I16..4: 24.3% 58.2% 17.4%
x264 [info]: mb P I16..4: 2.2% 14.2% 1.4% P16..4: 30.2% 32.5% 11.0% 1.9% 0.2% skip: 6.4%
x264 [info]: mb B I16..4: 0.2% 1.4% 0.2% B16..8: 34.3% 21.8% 3.6% direct: 5.6% skip:32.8% L0:45.4% L1:42.6% BI:12.0%
x264 [info]: 8x8 transform intra:76.4% inter:51.3%
x264 [info]: direct mvs spatial:97.6% temporal:2.4%
x264 [info]: coded y,uvDC,uvAC intra: 86.8% 87.2% 74.0% inter: 25.9% 31.1% 14.7%
x264 [info]: i16 v,h,dc,p: 32% 8% 20% 40%
x264 [info]: i8 v,h,dc,ddl,ddr,vr,hd,vl,hu: 11% 9% 16% 9% 11% 11% 11% 11% 12%
x264 [info]: i4 v,h,dc,ddl,ddr,vr,hd,vl,hu: 35% 8% 15% 6% 8% 8% 8% 6% 7%
x264 [info]: i8c dc,h,v,p: 49% 22% 15% 14%
x264 [info]: Weighted P-Frames: Y:1.8% UV:0.9%
x264 [info]: ref P L0: 47.1% 10.1% 25.3% 7.9% 8.6% 1.1% 0.0%
x264 [info]: ref B L0: 70.4% 21.1% 6.4% 2.1%
x264 [info]: ref B L1: 91.9% 8.1%
x264 [info]: kb/s:7395.70

Инфо-файл

Общее
Уникальный идентификатор : 180877505367208051197873684886279571639 (0x8813BD89E3B6B4EDA1628E6F3E2648B7)
Полное имя : D:ЗагрузкиWelcome.To.Marwen.2018.x264.BDRip.(1080p).OlLanDGroup.mkv
Формат : Matroska
Версия формата : Version 4 / Version 2
Размер файла : 7,94 Гбайт
Продолжительность : 1 ч. 55 м.
Общий поток : 9804 Кбит/сек
Название фильма : Удивительный мир Марвена.2018.Rip by: ollan
Дата кодирования : UTC 2020-08-15 07:05:00
Программа кодирования : mkvmerge v6.5.0 ('Isn't she lovely') built on Oct 20 2013 12:50:05
Библиотека кодирования : libebml v1.3.0 + libmatroska v1.4.1
Обложка : Yes
Attachments : Cover - Welcome.To.Marwen.png
Видео
Идентификатор : 1
Формат : AVC
Формат/Информация : Advanced Video Codec
Профиль формата : High@L4.1
Настройки формата : CABAC / 5 Ref Frames
Параметр CABAC формата : Да
Параметр ReFrames формата : 5 кадров
Идентификатор кодека : V_MPEG4/ISO/AVC
Продолжительность : 1 ч. 55 м.
Битрейт : 7393 Кбит/сек
Ширина : 1920 пикселей
Высота : 804 пикселя
Соотношение сторон : 2,40:1
Режим частоты кадров : Постоянный
Частота кадров : 23,976 (24000/1001) кадра/сек
Цветовое пространство : YUV
Субдискретизация насыщенности : 4:2:0
Битовая глубина : 8 бит
Тип развёртки : Прогрессивная
Бит/(Пиксели*Кадры) : 0.200
Размер потока : 5,83 Гбайт (73%)
Библиотека кодирования : x264 core 146 r2538 121396c
Настройки программы : cabac=1 / ref=5 / deblock=1:-3:-3 / analyse=0x3:0x133 / me=umh / subme=11 / psy=1 / psy_rd=0.95:0.15 / mixed_ref=1 / me_range=64 / chroma_me=1 / trellis=2 / 8x8dct=1 / cqm=0 / deadzone=21,11 / fast_pskip=0 / chroma_qp_offset=-3 / threads=12 / lookahead_threads=3 / sliced_threads=0 / nr=0 / decimate=0 / interlaced=0 / bluray_compat=0 / constrained_intra=0 / bframes=10 / b_pyramid=2 / b_adapt=2 / b_bias=0 / direct=3 / weightb=1 / open_gop=0 / weightp=2 / keyint=240 / keyint_min=23 / scenecut=40 / intra_refresh=0 / rc_lookahead=40 / rc=2pass / mbtree=0 / bitrate=7393 / ratetol=1.0 / qcomp=0.60 / qpmin=0 / qpmax=69 / qpstep=4 / cplxblur=20.0 / qblur=0.5 / vbv_maxrate=50000 / vbv_bufsize=62500 / nal_hrd=none / filler=0 / ip_ratio=1.40 / pb_ratio=1.30 / aq=1:1.00
Язык : English
Default : Да
Forced : Нет
Аудио #1
Идентификатор : 2
Формат : AC-3
Формат/Информация : Audio Coding 3
Идентификатор кодека : A_AC3
Продолжительность : 1 ч. 55 м.
Вид битрейта : Постоянный
Битрейт : 640 Кбит/сек
Каналы : 6 каналов
Расположение каналов : Front: L C R, Side: L R, LFE
Частота : 48,0 КГц
Частота кадров : 31,250 кадров/сек (1536 SPF)
Битовая глубина : 16 бит
Метод сжатия : С потерями
Размер потока : 531 Мбайт (7%)
Заголовок : Лицензия
Язык : Russian
Service kind : Complete Main
Default : Да
Forced : Нет
Аудио #2
Идентификатор : 3
Формат : AC-3
Формат/Информация : Audio Coding 3
Идентификатор кодека : A_AC3
Продолжительность : 1 ч. 55 м.
Вид битрейта : Постоянный
Битрейт : 256 Кбит/сек
Каналы : 2 канала
Расположение каналов : Front: L R
Частота : 48,0 КГц
Частота кадров : 31,250 кадров/сек (1536 SPF)
Битовая глубина : 16 бит
Метод сжатия : С потерями
Размер потока : 212 Мбайт (3%)
Заголовок : HDRezka Studio
Язык : Russian
Service kind : Complete Main
Default : Нет
Forced : Нет
Аудио #3
Идентификатор : 4
Формат : DTS
Формат/Информация : Digital Theater Systems
Идентификатор кодека : A_DTS
Продолжительность : 1 ч. 55 м.
Вид битрейта : Постоянный
Битрейт : 1509 Кбит/сек
Каналы : 6 каналов
Расположение каналов : Front: L C R, Side: L R, LFE
Частота : 48,0 КГц
Частота кадров : 93,750 кадра/сек (512 SPF)
Битовая глубина : 24 бит
Метод сжатия : С потерями
Размер потока : 1,22 Гбайт (15%)
Язык : English
Default : Нет
Forced : Нет
Текст #1
Идентификатор : 5
Формат : UTF-8
Идентификатор кодека : S_TEXT/UTF8
Идентификатор кодека/Информация : UTF-8 Plain Text
Заголовок : Forced
Язык : Russian
Default : Да
Forced : Нет
Текст #2
Идентификатор : 6
Формат : UTF-8
Идентификатор кодека : S_TEXT/UTF8
Идентификатор кодека/Информация : UTF-8 Plain Text
Заголовок : Full
Язык : Russian
Default : Нет
Forced : Нет
Текст #3
Идентификатор : 7
Формат : UTF-8
Идентификатор кодека : S_TEXT/UTF8
Идентификатор кодека/Информация : UTF-8 Plain Text
Заголовок : Full
Язык : English
Default : Нет
Forced : Нет
Меню
00:00:00.000 : en:Chapter 01
00:04:17.257 : en:Chapter 02
00:10:57.448 : en:Chapter 03
00:16:42.876 : en:Chapter 04
00:22:26.970 : en:Chapter 05
00:27:34.819 : en:Chapter 06
00:35:10.775 : en:Chapter 07
00:41:09.216 : en:Chapter 08
00:45:59.173 : en:Chapter 09
00:51:35.634 : en:Chapter 10
01:00:35.923 : en:Chapter 11
01:03:30.973 : en:Chapter 12
01:08:07.249 : en:Chapter 13
01:13:38.705 : en:Chapter 14
01:17:14.713 : en:Chapter 15
01:25:13.525 : en:Chapter 16
01:30:48.484 : en:Chapter 17
01:39:34.718 : en:Chapter 18
01:43:31.371 : en:Chapter 19
01:48:50.106 : en:Chapter 20

Скриншоты



Релиз от: Rip by:
Профиль [ЛС]
Показать сообщения:    

Текущее время: 20-Окт 05:55

Часовой пояс: UTC ± 0



Вы не можете начинать темы
Вы не можете отвечать на сообщения
Вы не можете редактировать свои сообщения
Вы не можете удалять свои сообщения
Вы не можете голосовать в опросах
Вы не можете прикреплять файлы к сообщениям
Вы не можете скачивать файлы