Статистика раздачи
Нет
 
     
 
 

K15 ®

Пол:
Мужской
Стаж:
8 месяцев 28 дней
Сообщений:
172

Информация о фильме
Оригинальное название: Аванпост
Год выпуска: 2019
Жанр: Триллер, фантастика, боевик
Выпущено: Россия, 1-2-3 Production, TNT-Premier, Канал ТВ-3
Режиссер: Егор Баранов
В ролях: Лукерья Ильяшенко, Пётр Фёдоров, Светлана Иванова, Алексей Чадов, Ксения Кутепова, Константин Лавроненко, Филипп Авдеев, Артем Маркарьян, Сергей Годин, Артём Ткаченко
О фильме: В недалеком будущем что-то произошло. Связь с большей частью населенных пунктов Земли оборвалась. Космонавты передали с орбиты, что видят сверху небольшое пятно в Восточной Европе, по своим очертаниям напоминающее круг. То, что военные находят за границей этого круга, шокирует. В магазинах, в автомобилях, на дорогах, в зданиях больниц и вокзалов, повсюду — следы столкновений. Кто или что уничтожает все живое? И как долго продержится последний аванпост человечества?

Качество: BDRip (1080p)
Видео: MPEG-4 AVC, 8241 Kбит/с, 1920x804, 23.976 кадр/с
Аудио: Русский (AC3, 6 ch, 640 Кбит/с), (DTS, 6 ch, 1509 Кбит/с)
Размер: 9.25 ГБ
Продолжительность: 02:07:30
Язык: Русский
Субтитры: Русские
Озвучивание - (Лицензия)
Сохранены оригинальные чаптеры как на Blu-Ray.

x264

x264 [info]: frame I:1409 Avg QP:14.09 size:220337
x264 [info]: frame P:45582 Avg QP:17.10 size: 76075
x264 [info]: frame B:136418 Avg QP:18.41 size: 30038
x264 [info]: consecutive B-frames: 5.5% 4.1% 11.2% 10.8% 15.5% 44.7% 5.0% 0.9% 0.9% 0.7% 0.7%
x264 [info]: mb I I16..4: 7.9% 82.8% 9.3%
x264 [info]: mb P I16..4: 2.2% 17.9% 1.2% P16..4: 28.1% 32.7% 9.6% 1.2% 0.1% skip: 6.9%
x264 [info]: mb B I16..4: 0.4% 1.6% 0.1% B16..8: 37.4% 22.3% 3.4% direct: 6.4% skip:28.3% L0:45.2% L1:45.0% BI: 9.8%
x264 [info]: 8x8 transform intra:81.8% inter:62.5%
x264 [info]: direct mvs spatial:98.0% temporal:2.0%
x264 [info]: coded y,uvDC,uvAC intra: 79.7% 88.4% 75.8% inter: 28.2% 36.2% 19.3%
x264 [info]: i16 v,h,dc,p: 43% 11% 7% 39%
x264 [info]: i8 v,h,dc,ddl,ddr,vr,hd,vl,hu: 10% 7% 14% 10% 12% 11% 12% 11% 13%
x264 [info]: i4 v,h,dc,ddl,ddr,vr,hd,vl,hu: 29% 8% 12% 7% 10% 9% 9% 7% 9%
x264 [info]: i8c dc,h,v,p: 50% 21% 14% 15%
x264 [info]: Weighted P-Frames: Y:4.8% UV:3.4%
x264 [info]: ref P L0: 48.0% 8.5% 23.7% 9.2% 8.6% 1.8% 0.1%
x264 [info]: ref B L0: 72.1% 19.7% 6.3% 1.8%
x264 [info]: ref B L1: 91.3% 8.7%
x264 [info]: kb/s:8236.54

Инфо-файл

Общее
Уникальный идентификатор : 176732481019612893233870354270451984475 (0x84F5700F586BBAE69389B0AA492CE85B)
Полное имя : D:ЗагрузкиAvanpost.2019.x264.BDRip.(1080p).OlLanDGroup.mkv
Формат : Matroska
Версия формата : Version 4 / Version 2
Размер файла : 9,25 Гбайт
Продолжительность : 2 ч. 7 м.
Общий поток : 10,4 Мбит/сек
Название фильма : Аванпост.2019.Rip by: ollan
Дата кодирования : UTC 2020-08-06 16:37:53
Программа кодирования : mkvmerge v6.5.0 ('Isn't she lovely') built on Oct 20 2013 12:50:05
Библиотека кодирования : libebml v1.3.0 + libmatroska v1.4.1
Обложка : Yes
Attachments : Cover - Avanpost.png
Видео
Идентификатор : 1
Формат : AVC
Формат/Информация : Advanced Video Codec
Профиль формата : High@L4.1
Настройки формата : CABAC / 5 Ref Frames
Параметр CABAC формата : Да
Параметр ReFrames формата : 5 кадров
Идентификатор кодека : V_MPEG4/ISO/AVC
Продолжительность : 2 ч. 7 м.
Битрейт : 8241 Кбит/сек
Ширина : 1920 пикселей
Высота : 804 пикселя
Соотношение сторон : 2,40:1
Режим частоты кадров : Постоянный
Частота кадров : 23,976 (24000/1001) кадра/сек
Цветовое пространство : YUV
Субдискретизация насыщенности : 4:2:0
Битовая глубина : 8 бит
Тип развёртки : Прогрессивная
Бит/(Пиксели*Кадры) : 0.223
Размер потока : 7,15 Гбайт (77%)
Библиотека кодирования : x264 core 146 r2538 121396c
Настройки программы : cabac=1 / ref=5 / deblock=1:-3:-3 / analyse=0x3:0x133 / me=umh / subme=11 / psy=1 / psy_rd=0.95:0.05 / mixed_ref=1 / me_range=64 / chroma_me=1 / trellis=2 / 8x8dct=1 / cqm=0 / deadzone=21,11 / fast_pskip=0 / chroma_qp_offset=-3 / threads=12 / lookahead_threads=3 / sliced_threads=0 / nr=0 / decimate=0 / interlaced=0 / bluray_compat=0 / constrained_intra=0 / bframes=10 / b_pyramid=2 / b_adapt=2 / b_bias=0 / direct=3 / weightb=1 / open_gop=0 / weightp=2 / keyint=240 / keyint_min=23 / scenecut=40 / intra_refresh=0 / rc_lookahead=40 / rc=2pass / mbtree=0 / bitrate=8241 / ratetol=1.0 / qcomp=0.60 / qpmin=0 / qpmax=69 / qpstep=4 / cplxblur=20.0 / qblur=0.5 / vbv_maxrate=50000 / vbv_bufsize=62500 / nal_hrd=none / filler=0 / ip_ratio=1.40 / pb_ratio=1.30 / aq=1:1.00
Язык : Russian
Default : Да
Forced : Нет
Аудио #1
Идентификатор : 2
Формат : AC-3
Формат/Информация : Audio Coding 3
Идентификатор кодека : A_AC3
Продолжительность : 2 ч. 7 м.
Вид битрейта : Постоянный
Битрейт : 640 Кбит/сек
Каналы : 6 каналов
Расположение каналов : Front: L C R, Side: L R, LFE
Частота : 48,0 КГц
Частота кадров : 31,250 кадров/сек (1536 SPF)
Битовая глубина : 16 бит
Метод сжатия : С потерями
Размер потока : 584 Мбайт (6%)
Заголовок : Лицензия
Язык : Russian
Service kind : Complete Main
Default : Да
Forced : Нет
Аудио #2
Идентификатор : 3
Формат : DTS
Формат/Информация : Digital Theater Systems
Идентификатор кодека : A_DTS
Продолжительность : 2 ч. 7 м.
Вид битрейта : Постоянный
Битрейт : 1509 Кбит/сек
Каналы : 6 каналов
Расположение каналов : Front: L C R, Side: L R, LFE
Частота : 48,0 КГц
Частота кадров : 93,750 кадра/сек (512 SPF)
Битовая глубина : 16 бит
Метод сжатия : С потерями
Размер потока : 1,34 Гбайт (15%)
Заголовок : Лицензия
Язык : Russian
Default : Нет
Forced : Нет
Текст #1
Идентификатор : 4
Формат : UTF-8
Идентификатор кодека : S_TEXT/UTF8
Идентификатор кодека/Информация : UTF-8 Plain Text
Заголовок : Forced from Enigma
Язык : Russian
Default : Да
Forced : Нет
Текст #2
Идентификатор : 5
Формат : UTF-8
Идентификатор кодека : S_TEXT/UTF8
Идентификатор кодека/Информация : UTF-8 Plain Text
Заголовок : Full from Enigma
Язык : Russian
Default : Нет
Forced : Нет
Меню
00:00:00.000 : ru:Chapter 01
00:09:30.278 : ru:Chapter 02
00:19:34.423 : ru:Chapter 03
00:29:52.665 : ru:Chapter 04
00:40:16.581 : ru:Chapter 05
00:50:11.342 : ru:Chapter 06
01:01:00.030 : ru:Chapter 07
01:10:54.876 : ru:Chapter 08
01:22:56.470 : ru:Chapter 09
01:34:43.511 : ru:Chapter 10
01:46:17.328 : ru:Chapter 11
02:04:02.726 : ru:Chapter 12

Скриншоты



Релиз от: Rip by:
Профиль [ЛС]
Показать сообщения:    

Текущее время: 20-Окт 05:36

Часовой пояс: UTC ± 0



Вы не можете начинать темы
Вы не можете отвечать на сообщения
Вы не можете редактировать свои сообщения
Вы не можете удалять свои сообщения
Вы не можете голосовать в опросах
Вы не можете прикреплять файлы к сообщениям
Вы не можете скачивать файлы