Статистика раздачи
Нет
 
     
 
 

K15 ®

Пол:
Мужской
Стаж:
9 месяцев 5 дней
Сообщений:
192

Информация о фильме
Оригинальное название: Верность
Год выпуска: 2019
Жанр: Драма
Выпущено: Россия, PREMIER Studios, Droog Drooga Films при поддержке Министерства культуры РФ
Режиссер: Нигина Сайфуллаева
В ролях: Александр Паль, Евгения Громова, Алексей Агранович, Марина Васильева (II), Анна Котова, Павел Ворожцов, Елизавета Лотова, Анастасия Денисова, Кирилл Каганович
О фильме: Лена — талантливый акушер-гинеколог, её муж Сережа — артист провинциального драмтеатра. Близость и нежность у них есть, секса — нет. Лена подозревает, что Сережа завёл роман на стороне, но она мучается молча и не выдаёт свою ревность. Вместо того чтобы выяснить отношения с мужем, Лена сама начинает изменять ему со случайными мужчинами. Она, конечно, не думала, что её параллельная жизнь окажется не менее подлинной, чем основная. И не менее реальной. И настолько опасной.

Качество: BDRip (1080p)
Видео: MPEG-4 AVC, 10286 Кбит/с, 1920x804, 24 кадр/с
Аудио: Русский (AC3, 6 ch, 640 Кбит/с), (DTS, 6 ch, 1509 Кбит/с)
Размер: 7.10 ГБ
Продолжительность: 01:21:46
Язык: Русский
Озвучивание - (Лицензия)
Сохранены оригинальные чаптеры как на Blu-Ray.

x264

x264 [info]: frame I:594 Avg QP:13.96 size:181262
x264 [info]: frame P:22030 Avg QP:16.64 size: 96779
x264 [info]: frame B:95122 Avg QP:17.98 size: 42750
x264 [info]: consecutive B-frames: 1.1% 2.8% 4.8% 8.1% 12.8% 47.8% 6.4% 1.3% 2.8% 6.8% 5.2%
x264 [info]: mb I I16..4: 9.7% 83.3% 7.0%
x264 [info]: mb P I16..4: 3.1% 31.8% 1.2% P16..4: 24.3% 24.2% 6.4% 0.4% 0.0% skip: 8.7%
x264 [info]: mb B I16..4: 1.1% 4.0% 0.2% B16..8: 33.3% 20.9% 3.6% direct:10.2% skip:26.8% L0:47.9% L1:39.0% BI:13.1%
x264 [info]: 8x8 transform intra:83.6% inter:64.0%
x264 [info]: direct mvs spatial:97.9% temporal:2.1%
x264 [info]: coded y,uvDC,uvAC intra: 75.5% 93.2% 86.7% inter: 26.1% 51.4% 41.0%
x264 [info]: i16 v,h,dc,p: 30% 11% 6% 53%
x264 [info]: i8 v,h,dc,ddl,ddr,vr,hd,vl,hu: 11% 7% 17% 9% 11% 11% 10% 11% 12%
x264 [info]: i4 v,h,dc,ddl,ddr,vr,hd,vl,hu: 31% 9% 18% 6% 8% 9% 7% 6% 6%
x264 [info]: i8c dc,h,v,p: 66% 12% 9% 13%
x264 [info]: Weighted P-Frames: Y:2.3% UV:1.2%
x264 [info]: ref P L0: 41.0% 6.5% 29.2% 10.6% 11.9% 0.7% 0.0%
x264 [info]: ref B L0: 61.9% 26.8% 9.1% 2.2%
x264 [info]: ref B L1: 88.3% 11.7%
x264 [info]: kb/s:10283.04

Инфо-файл

Общее
Уникальный идентификатор : 213908517724125432471032775181746719685 (0xA0ED482ED24840A9A0BD496E4D724BC5)
Полное имя : D:ЗагрузкиVernost.2019.x264.BDRip.(1080p).OlLanDGroup.mkv
Формат : Matroska
Версия формата : Version 4 / Version 2
Размер файла : 7,10 Гбайт
Продолжительность : 1 ч. 21 м.
Общий поток : 12,4 Мбит/сек
Название фильма : Верность.2019.Rip by: ollan
Дата кодирования : UTC 2020-07-25 06:14:18
Программа кодирования : mkvmerge v6.5.0 ('Isn't she lovely') built on Oct 20 2013 12:50:05
Библиотека кодирования : libebml v1.3.0 + libmatroska v1.4.1
Обложка : Yes
Attachments : Cover - Vernost.png
Видео
Идентификатор : 1
Формат : AVC
Формат/Информация : Advanced Video Codec
Профиль формата : High@L4.1
Настройки формата : CABAC / 5 Ref Frames
Параметр CABAC формата : Да
Параметр ReFrames формата : 5 кадров
Идентификатор кодека : V_MPEG4/ISO/AVC
Продолжительность : 1 ч. 21 м.
Битрейт : 10,3 Мбит/сек
Ширина : 1920 пикселей
Высота : 804 пикселя
Соотношение сторон : 2,40:1
Режим частоты кадров : Постоянный
Частота кадров : 24,000 кадра/сек
Цветовое пространство : YUV
Субдискретизация насыщенности : 4:2:0
Битовая глубина : 8 бит
Тип развёртки : Прогрессивная
Бит/(Пиксели*Кадры) : 0.278
Размер потока : 5,73 Гбайт (81%)
Библиотека кодирования : x264 core 146 r2538 121396c
Настройки программы : cabac=1 / ref=5 / deblock=1:-3:-3 / analyse=0x3:0x133 / me=umh / subme=11 / psy=1 / psy_rd=0.95:0.05 / mixed_ref=1 / me_range=64 / chroma_me=1 / trellis=2 / 8x8dct=1 / cqm=0 / deadzone=21,11 / fast_pskip=0 / chroma_qp_offset=-3 / threads=12 / lookahead_threads=3 / sliced_threads=0 / nr=0 / decimate=0 / interlaced=0 / bluray_compat=0 / constrained_intra=0 / bframes=10 / b_pyramid=2 / b_adapt=2 / b_bias=0 / direct=3 / weightb=1 / open_gop=0 / weightp=2 / keyint=240 / keyint_min=23 / scenecut=40 / intra_refresh=0 / rc_lookahead=40 / rc=2pass / mbtree=0 / bitrate=10286 / ratetol=1.0 / qcomp=0.60 / qpmin=0 / qpmax=69 / qpstep=4 / cplxblur=20.0 / qblur=0.5 / vbv_maxrate=50000 / vbv_bufsize=62500 / nal_hrd=none / filler=0 / ip_ratio=1.40 / pb_ratio=1.30 / aq=1:1.00
Язык : Russian
Default : Да
Forced : Нет
Аудио #1
Идентификатор : 2
Формат : AC-3
Формат/Информация : Audio Coding 3
Идентификатор кодека : A_AC3
Продолжительность : 1 ч. 21 м.
Вид битрейта : Постоянный
Битрейт : 640 Кбит/сек
Каналы : 6 каналов
Расположение каналов : Front: L C R, Side: L R, LFE
Частота : 48,0 КГц
Частота кадров : 31,250 кадров/сек (1536 SPF)
Битовая глубина : 16 бит
Метод сжатия : С потерями
Размер потока : 374 Мбайт (5%)
Заголовок : Лицензия
Язык : Russian
Service kind : Complete Main
Default : Да
Forced : Нет
Аудио #2
Идентификатор : 3
Формат : DTS
Формат/Информация : Digital Theater Systems
Идентификатор кодека : A_DTS
Продолжительность : 1 ч. 21 м.
Вид битрейта : Постоянный
Битрейт : 1509 Кбит/сек
Каналы : 6 каналов
Расположение каналов : Front: L C R, Side: L R, LFE
Частота : 48,0 КГц
Частота кадров : 93,750 кадра/сек (512 SPF)
Битовая глубина : 24 бит
Метод сжатия : С потерями
Размер потока : 883 Мбайт (12%)
Заголовок : Лицензия
Язык : Russian
Default : Нет
Forced : Нет
Меню
00:00:00.000 : ru:Chapter 01
00:02:59.875 : ru:Chapter 02
00:08:27.583 : ru:Chapter 03
00:13:29.041 : ru:Chapter 04
00:19:43.166 : ru:Chapter 05
00:24:43.916 : ru:Chapter 06
00:29:47.166 : ru:Chapter 07
00:36:36.375 : ru:Chapter 08
00:42:06.875 : ru:Chapter 09
00:47:30.083 : ru:Chapter 10
00:52:24.041 : ru:Chapter 11
00:57:09.750 : ru:Chapter 12
01:02:25.500 : ru:Chapter 13
01:05:27.666 : ru:Chapter 14
01:12:57.707 : ru:Chapter 15
01:18:21.375 : ru:Chapter 16

Скриншоты



Релиз от: Rip by:
Профиль [ЛС]
Показать сообщения:    

Текущее время: 27-Окт 21:15

Часовой пояс: UTC ± 0



Вы не можете начинать темы
Вы не можете отвечать на сообщения
Вы не можете редактировать свои сообщения
Вы не можете удалять свои сообщения
Вы не можете голосовать в опросах
Вы не можете прикреплять файлы к сообщениям
Вы не можете скачивать файлы