Статистика раздачи
Нет
 
     
 
 

K15 ®

Пол:
Мужской
Стаж:
8 месяцев 29 дней
Сообщений:
175

Информация о фильме
Название: Щегол
Оригинальное название: The Goldfinch
Год выпуска: 2019
Жанр: Драма, экранизация
Выпущено: США, Amazon Studios, Color Force, Warner Bros.
Режиссер: Джон Краули
В ролях: Энсел Элгорт, Оакс Фигли, Анейрин Барнард, Финн Вулфард, Сара Полсон, Люк Уилсон, Джеффри Райт, Николь Кидман, Эшли Каммингс, Уилла Фицджералд, Айми Лоуренс, Роберт Джой, Бойд Гейнс, Карли Коннорс, Люк Клеинтенк
О фильме: История юного Теодора Деккера, потерявшего мать во время теракта в Метрополитен-музее. Чудом оставшись в живых после взрыва, Тео получает от умирающего старика редкую картину кисти Карела Фабрициуса и кольцо. С этого момента начинается его погружение в подпольный мир искусства

Качество: BDRip (1080p)
Видео: MPEG-4 AVC, 8849 Кбит/с, 1920x1036, 23.976 кадр/с
Аудио: Русский (AC3, 6 ch, 448 Кбит/с), украинский (AC3, 2 ch, 160 Кбит/с), английский (DTS, 6 ch, 1509 Кбит/с)
Размер: 11.45 ГБ
Продолжительность: 02:29:26
Перевод: Дублированный
Субтитры: Русские, английские
Озвучивание - Дублированное (Лицензия)
Сохранены оригинальные чаптеры как на Blu-Ray.

x264

x264 [info]: frame I:1801 Avg QP:11.10 size:322847
x264 [info]: frame P:47892 Avg QP:13.78 size: 95454
x264 [info]: frame B:165297 Avg QP:14.71 size: 28800
x264 [info]: consecutive B-frames: 1.9% 4.6% 16.0% 7.2% 16.8% 40.2% 8.3% 1.3% 1.7% 1.0% 1.0%
x264 [info]: mb I I16..4: 24.0% 59.6% 16.4%
x264 [info]: mb P I16..4: 1.2% 13.6% 0.6% P16..4: 26.2% 33.8% 13.2% 3.0% 0.2% skip: 8.2%
x264 [info]: mb B I16..4: 0.2% 0.9% 0.1% B16..8: 31.0% 24.7% 4.9% direct: 5.8% skip:32.5% L0:42.6% L1:44.7% BI:12.7%
x264 [info]: 8x8 transform intra:81.7% inter:42.2%
x264 [info]: direct mvs spatial:98.4% temporal:1.6%
x264 [info]: coded y,uvDC,uvAC intra: 89.4% 82.7% 75.7% inter: 23.6% 24.9% 12.6%
x264 [info]: i16 v,h,dc,p: 30% 8% 21% 41%
x264 [info]: i8 v,h,dc,ddl,ddr,vr,hd,vl,hu: 11% 9% 20% 9% 10% 10% 10% 11% 11%
x264 [info]: i4 v,h,dc,ddl,ddr,vr,hd,vl,hu: 12% 8% 18% 8% 12% 12% 10% 9% 10%
x264 [info]: i8c dc,h,v,p: 56% 19% 15% 10%
x264 [info]: Weighted P-Frames: Y:1.8% UV:1.0%
x264 [info]: ref P L0: 53.8% 6.2% 28.7% 9.1% 2.2% 0.0%
x264 [info]: ref B L0: 83.1% 14.1% 2.8%
x264 [info]: ref B L1: 90.8% 9.2%
x264 [info]: kb/s:8844.52

Инфо-файл

Общее
Уникальный идентификатор : 203676270473323135433632249131200719134 (0x993A9F718FDF933B983DD1F4FC48A91E)
Полное имя : D:ЗагрузкиThe.Goldfinch.2019.x264.BDRip.(1080p).OlLanDGroup.mkv
Формат : Matroska
Версия формата : Version 4 / Version 2
Размер файла : 11,4 Гбайт
Продолжительность : 2 ч. 29 м.
Общий поток : 11,0 Мбит/сек
Название фильма : Щегол.2019.Rip by: ollan
Дата кодирования : UTC 2020-07-23 16:47:51
Программа кодирования : mkvmerge v6.5.0 ('Isn't she lovely') built on Oct 20 2013 12:50:05
Библиотека кодирования : libebml v1.3.0 + libmatroska v1.4.1
Обложка : Yes
Attachments : Cover - The.Goldfinch.png
Видео
Идентификатор : 1
Формат : AVC
Формат/Информация : Advanced Video Codec
Профиль формата : High@L4.1
Настройки формата : CABAC / 4 Ref Frames
Параметр CABAC формата : Да
Параметр ReFrames формата : 4 кадра
Идентификатор кодека : V_MPEG4/ISO/AVC
Продолжительность : 2 ч. 29 м.
Битрейт : 8849 Кбит/сек
Ширина : 1920 пикселей
Высота : 1036 пикселей
Соотношение сторон : 1,85:1
Режим частоты кадров : Постоянный
Частота кадров : 23,976 (24000/1001) кадра/сек
Цветовое пространство : YUV
Субдискретизация насыщенности : 4:2:0
Битовая глубина : 8 бит
Тип развёртки : Прогрессивная
Бит/(Пиксели*Кадры) : 0.186
Размер потока : 9,01 Гбайт (79%)
Библиотека кодирования : x264 core 146 r2538 121396c
Настройки программы : cabac=1 / ref=4 / deblock=1:-3:-3 / analyse=0x3:0x133 / me=umh / subme=11 / psy=1 / psy_rd=0.95:0.05 / mixed_ref=1 / me_range=64 / chroma_me=1 / trellis=2 / 8x8dct=1 / cqm=0 / deadzone=21,11 / fast_pskip=0 / chroma_qp_offset=-3 / threads=12 / lookahead_threads=3 / sliced_threads=0 / nr=0 / decimate=0 / interlaced=0 / bluray_compat=0 / constrained_intra=0 / bframes=10 / b_pyramid=2 / b_adapt=2 / b_bias=0 / direct=3 / weightb=1 / open_gop=0 / weightp=2 / keyint=240 / keyint_min=23 / scenecut=40 / intra_refresh=0 / rc_lookahead=40 / rc=2pass / mbtree=0 / bitrate=8849 / ratetol=1.0 / qcomp=0.60 / qpmin=0 / qpmax=69 / qpstep=4 / cplxblur=20.0 / qblur=0.5 / vbv_maxrate=50000 / vbv_bufsize=62500 / nal_hrd=none / filler=0 / ip_ratio=1.40 / pb_ratio=1.30 / aq=1:1.00
Язык : English
Default : Да
Forced : Нет
Аудио #1
Идентификатор : 2
Формат : AC-3
Формат/Информация : Audio Coding 3
Идентификатор кодека : A_AC3
Продолжительность : 2 ч. 29 м.
Вид битрейта : Постоянный
Битрейт : 448 Кбит/сек
Каналы : 6 каналов
Расположение каналов : Front: L C R, Side: L R, LFE
Частота : 48,0 КГц
Частота кадров : 31,250 кадров/сек (1536 SPF)
Битовая глубина : 16 бит
Метод сжатия : С потерями
Размер потока : 479 Мбайт (4%)
Заголовок : Лицензия
Язык : Russian
Service kind : Complete Main
Default : Да
Forced : Нет
Аудио #2
Идентификатор : 3
Формат : AC-3
Формат/Информация : Audio Coding 3
Идентификатор кодека : A_AC3
Продолжительность : 2 ч. 29 м.
Вид битрейта : Постоянный
Битрейт : 160 Кбит/сек
Каналы : 2 канала
Расположение каналов : Front: L R
Частота : 48,0 КГц
Частота кадров : 31,250 кадров/сек (1536 SPF)
Битовая глубина : 16 бит
Метод сжатия : С потерями
Размер потока : 171 Мбайт (1%)
Язык : Ukrainian
Service kind : Complete Main
Default : Нет
Forced : Нет
Аудио #3
Идентификатор : 4
Формат : DTS
Формат/Информация : Digital Theater Systems
Идентификатор кодека : A_DTS
Продолжительность : 2 ч. 29 м.
Вид битрейта : Постоянный
Битрейт : 1509 Кбит/сек
Каналы : 6 каналов
Расположение каналов : Front: L C R, Side: L R, LFE
Частота : 48,0 КГц
Частота кадров : 93,750 кадра/сек (512 SPF)
Битовая глубина : 16 бит
Метод сжатия : С потерями
Размер потока : 1,58 Гбайт (14%)
Язык : English
Default : Нет
Forced : Нет
Текст #1
Идентификатор : 5
Формат : UTF-8
Идентификатор кодека : S_TEXT/UTF8
Идентификатор кодека/Информация : UTF-8 Plain Text
Заголовок : Forced
Язык : Russian
Default : Да
Forced : Нет
Текст #2
Идентификатор : 6
Формат : UTF-8
Идентификатор кодека : S_TEXT/UTF8
Идентификатор кодека/Информация : UTF-8 Plain Text
Заголовок : Full
Язык : Russian
Default : Нет
Forced : Нет
Текст #3
Идентификатор : 7
Формат : UTF-8
Идентификатор кодека : S_TEXT/UTF8
Идентификатор кодека/Информация : UTF-8 Plain Text
Заголовок : Forced
Язык : Ukrainian
Default : Нет
Forced : Нет
Текст #4
Идентификатор : 8
Формат : UTF-8
Идентификатор кодека : S_TEXT/UTF8
Идентификатор кодека/Информация : UTF-8 Plain Text
Заголовок : Full
Язык : English
Default : Нет
Forced : Нет
Меню
00:00:00.000 : en:Chapter 01
00:10:12.820 : en:Chapter 02
00:18:52.673 : en:Chapter 03
00:29:06.661 : en:Chapter 04
00:38:02.947 : en:Chapter 05
00:48:50.885 : en:Chapter 06
00:57:58.684 : en:Chapter 07
01:07:23.706 : en:Chapter 08
01:13:11.595 : en:Chapter 09
01:21:32.386 : en:Chapter 10
01:30:45.774 : en:Chapter 11
01:40:34.694 : en:Chapter 12
01:47:09.631 : en:Chapter 13
01:59:06.890 : en:Chapter 14
02:04:56.197 : en:Chapter 15
02:11:11.863 : en:Chapter 16
02:21:56.424 : en:Chapter 17

Скриншоты



Релиз от: Rip by:
Профиль [ЛС]
Показать сообщения:    

Текущее время: 21-Окт 04:49

Часовой пояс: UTC ± 0



Вы не можете начинать темы
Вы не можете отвечать на сообщения
Вы не можете редактировать свои сообщения
Вы не можете удалять свои сообщения
Вы не можете голосовать в опросах
Вы не можете прикреплять файлы к сообщениям
Вы не можете скачивать файлы