Статистика раздачи
Нет
 
     
 
 

K15 ®

Пол:
Мужской
Стаж:
9 месяцев 6 дней
Сообщений:
192

- Дьявол всегда здесь / The Devil All the Time - Информация о фильме:
Название: Дьявол всегда здесь
Оригинальное название: The Devil All the Time
Год выхода: 2020
Жанр: триллер, драма, криминал
Режиссер: Антонио Кампос
В ролях: Том Холланд, Роберт Паттинсон, Билл Скарсгард, Хейли Беннетт, Райли Кио, Гарри Меллинг, Себастиан Стэн, Миа Васиковска, Элайза Сканлен, Джейсон Кларк и другие.
Описание: Молодой Уиллард Рассел возвращается с полей боёв Второй мировой и с первого взгляда влюбляется в работницу кафе Шарлотту. В этом же заведении находят друг друга фотограф-любитель Карл и официантка Сэнди. Хотя мать Уилларда активно сватает сыну местную сироту Хэлен, парень не может выкинуть из головы Шарлотту - влюблённые женятся, и у них рождается сын Арвин. Хэлен же не может противостоять харизме проповедника Роя, выходит за него замуж, и на свет появляется девочка Ленора. Вскоре судьбы молодых семей обернутся самым трагичным образом, а дети станут сводными братом и сестрой в доме матери Уилларда.

Страна: США
Студия: Nine Stories Productions
Продолжительность: 02:18:52
Перевод: Профессиональный (многоголосый, закадровый) - NewComers

Информация о файле:
Кодек: AVC
Формат: MKV
Качество: WEB-DLRip-AVC
Видео: MPEG-4 AVC, 1024x428 (2.40:1), 24.000 fps, 1471 kbps, 0.140
Аудио RU: AC3, 6 ch, 48 kHz, 448 kbps
Субтитры: Софтсаб на надписи, форсированный
*****Присутствует ненормативная лексика (18+)

Трейлер

MediaInfo

x264 info: frame I:1371 Avg QP:17.02 size: 63543
x264 info: frame P:39969 Avg QP:20.65 size: 17538
x264 info: frame B:158636 Avg QP:22.10 size: 4672
x264 info: consecutive B-frames: 1.8% 2.4% 5.6% 9.2% 13.2% 57.0% 5.2% 1.5% 1.4% 1.1% 0.5% 1.0%
===================================
General
Unique ID : 153690598457682223705664597823284149 (0x1D998812EFDDF333C32AAD432F63B5)
Complete name : D:uTorrentРипы_от_wolf1245_MediaBitThe Devil All the Time (2020) WEB-DLRip-AVC_wolf1245 & MediaBit.mkv
Format : Matroska
Format version : Version 4
File size : 1.86 GiB
Duration : 2 h 18 min
Overall bit rate : 1 918 kb/s
Movie name : The Devil All the Time (2020) WEB-DLRip-AVC from wolf1245 & MediaBit
Encoded date : UTC 2020-09-19 11:42:38
Writing application : mkvmerge v50.0.0 ('Awakenings') 64-bit
Writing library : libebml v1.4.0 + libmatroska v1.6.2
Video
ID : 1
Format : AVC
Format/Info : Advanced Video Codec
Format profile : High@L4.1
Format settings : CABAC / 11 Ref Frames
Format settings, CABAC : Yes
Format settings, Reference frames : 11 frames
Codec ID : V_MPEG4/ISO/AVC
Duration : 2 h 18 min
Bit rate : 1 471 kb/s
Width : 1 024 pixels
Height : 428 pixels
Display aspect ratio : 2.40:1
Frame rate mode : Constant
Frame rate : 24.000 FPS
Color space : YUV
Chroma subsampling : 4:2:0
Bit depth : 8 bits
Scan type : Progressive
Bits/(Pixel*Frame) : 0.140
Stream size : 1.42 GiB (77%)
Title : wolf1245 & MediaBit
Writing library : x264 core 157 r2958 57baac4
Encoding settings : cabac=1 / ref=11 / deblock=1:-3:-3 / analyse=0x3:0x133 / me=umh / subme=11 / psy=1 / psy_rd=1.00:0.07 / mixed_ref=1 / me_range=48 / chroma_me=1 / trellis=2 / 8x8dct=1 / cqm=0 / deadzone=21,11 / fast_pskip=0 / chroma_qp_offset=-3 / threads=10 / lookahead_threads=2 / sliced_threads=0 / nr=0 / decimate=0 / interlaced=0 / bluray_compat=0 / constrained_intra=0 / bframes=11 / b_pyramid=2 / b_adapt=2 / b_bias=0 / direct=3 / weightb=1 / open_gop=0 / weightp=2 / keyint=240 / keyint_min=24 / scenecut=40 / intra_refresh=0 / rc_lookahead=60 / rc=2pass / mbtree=0 / bitrate=1471 / ratetol=1.0 / qcomp=0.60 / qpmin=0 / qpmax=69 / qpstep=4 / cplxblur=20.0 / qblur=0.5 / vbv_maxrate=50000 / vbv_bufsize=62500 / nal_hrd=none / filler=0 / ip_ratio=1.40 / pb_ratio=1.30 / aq=2:1.00
Default : Yes
Forced : No
Audio
ID : 2
Format : AC-3
Format/Info : Audio Coding 3
Commercial name : Dolby Digital
Codec ID : A_AC3
Duration : 2 h 18 min
Bit rate mode : Constant
Bit rate : 448 kb/s
Channel(s) : 6 channels
Channel layout : L R C LFE Ls Rs
Sampling rate : 48.0 kHz
Frame rate : 31.250 FPS (1536 SPF)
Compression mode : Lossy
Stream size : 445 MiB (23%)
Title : MVO | NewComers
Language : Russian
Service kind : Complete Main
Default : Yes
Forced : No
Text
ID : 3
Format : UTF-8
Codec ID : S_TEXT/UTF8
Codec ID/Info : UTF-8 Plain Text
Duration : 2 h 11 min
Bit rate : 0 b/s
Count of elements : 8
Stream size : 414 Bytes (0%)
Title : надписи
Language : Russian
Default : No
Forced : No
Релиз от: &
Профиль [ЛС]
Показать сообщения:    

Текущее время: 29-Окт 07:37

Часовой пояс: UTC ± 0



Вы не можете начинать темы
Вы не можете отвечать на сообщения
Вы не можете редактировать свои сообщения
Вы не можете удалять свои сообщения
Вы не можете голосовать в опросах
Вы не можете прикреплять файлы к сообщениям
Вы не можете скачивать файлы