Статистика раздачи
Нет
 
     
 
 

K15 ®

Пол:
Мужской
Стаж:
8 месяцев 28 дней
Сообщений:
172

- Подлодка / Torpedo - Информация о фильме:
Название: Подлодка
Оригинальное название: Torpedo
Год выхода: 2019
Жанр: Боевик, приключения, военный, история
Режиссер: Свен Гуйбрехтс
В ролях: Коэн Де Боу, Туре Рифенштейн, Элла-Джун Генрард, Йорен Селдеслахтс, Свен Де Риддер, Стефан Персеваль, Берт Халфут, Руди Мукенди, Жиль Десхрейвер, Робрехт Ванден Торен
Описание: Командир Стэн вместе с отчаянной группой бойцов Сопротивления должны похитить германскую подводную лодку, на борту которой находится груз атомного урана. Миссия больше напоминает самоубийство, опасная затея грозит участникам большими проблемами, но ради государства и окончания войны они готовы на все. Начинается игра, в которой будет немало напряженных моментов.

Страна: Бельгия
Студия: A Team Productions, Column Film, Atlas International Film
Продолжительность: 01:42:28
Перевод: Любительский (многоголосый, закадровый) - AlphaProject

Информация о файле:
Кодек: AVC
Формат: MKV
Качество: WEB-DLRip-AVC
Видео: MPEG-4 AVC, 1024x424 (2.40:1), 23.976 fps, 2424 kbps, 0.233
Аудио RU: AC3, 2 ch, 48 kHz, 192 kbps
Аудио EN: AC3, 2 ch, 48 kHz, 192 kbps
Субтитры: Английские
Навигация по главам: Да

Трейлер

Скриншоты

MediaInfo

General
Unique ID : 29390405307253111563922047624802696572 (0x161C62DBC493626643F854D833A77D7C)
Complete name : D:uTorrentРипы_от_wolf1245_MediaBitTorpedo (2019) from wolf1245 & MediaBit.mkv
Format : Matroska
Format version : Version 4
File size : 2.01 GiB
Duration : 1 h 42 min
Overall bit rate : 2 809 kb/s
Movie name : Torpedo (2019) from wolf1245 & MediaBit
Encoded date : UTC 2020-09-19 08:34:27
Writing application : mkvmerge v50.0.0 ('Awakenings') 64-bit
Writing library : libebml v1.4.0 + libmatroska v1.6.2
Video
ID : 1
Format : AVC
Format/Info : Advanced Video Codec
Format profile : High@L4.1
Format settings : CABAC / 11 Ref Frames
Format settings, CABAC : Yes
Format settings, Reference frames : 11 frames
Codec ID : V_MPEG4/ISO/AVC
Duration : 1 h 42 min
Bit rate : 2 424 kb/s
Width : 1 024 pixels
Height : 424 pixels
Display aspect ratio : 2.40:1
Frame rate mode : Constant
Frame rate : 23.976 (24000/1001) FPS
Color space : YUV
Chroma subsampling : 4:2:0
Bit depth : 8 bits
Scan type : Progressive
Bits/(Pixel*Frame) : 0.233
Stream size : 1.73 GiB (86%)
Title : wolf1245 & MediaBit
Writing library : x264 core 157 r2958 57baac4
Encoding settings : cabac=1 / ref=11 / deblock=1:-3:-3 / analyse=0x3:0x133 / me=umh / subme=11 / psy=1 / psy_rd=1.00:0.00 / mixed_ref=1 / me_range=48 / chroma_me=1 / trellis=2 / 8x8dct=1 / cqm=0 / deadzone=21,11 / fast_pskip=0 / chroma_qp_offset=-2 / threads=10 / lookahead_threads=2 / sliced_threads=0 / nr=0 / decimate=0 / interlaced=0 / bluray_compat=0 / constrained_intra=0 / bframes=11 / b_pyramid=2 / b_adapt=2 / b_bias=0 / direct=3 / weightb=1 / open_gop=0 / weightp=2 / keyint=240 / keyint_min=24 / scenecut=40 / intra_refresh=0 / rc_lookahead=60 / rc=2pass / mbtree=0 / bitrate=2424 / ratetol=1.0 / qcomp=0.60 / qpmin=0 / qpmax=69 / qpstep=4 / cplxblur=20.0 / qblur=0.5 / vbv_maxrate=50000 / vbv_bufsize=62500 / nal_hrd=none / filler=0 / ip_ratio=1.40 / pb_ratio=1.30 / aq=2:1.00
Language : English
Default : Yes
Forced : No
Color range : Limited
Color primaries : BT.709
Transfer characteristics : BT.709
Matrix coefficients : BT.709
Audio #1
ID : 2
Format : AC-3
Format/Info : Audio Coding 3
Commercial name : Dolby Digital
Codec ID : A_AC3
Duration : 1 h 42 min
Bit rate mode : Constant
Bit rate : 192 kb/s
Channel(s) : 2 channels
Channel layout : L R
Sampling rate : 48.0 kHz
Frame rate : 31.250 FPS (1536 SPF)
Compression mode : Lossy
Stream size : 141 MiB (7%)
Title : MVO [AlphaProject] MediaBit
Language : Russian
Service kind : Complete Main
Default : Yes
Forced : No
Audio #2
ID : 3
Format : AC-3
Format/Info : Audio Coding 3
Commercial name : Dolby Digital
Codec ID : A_AC3
Duration : 1 h 42 min
Bit rate mode : Constant
Bit rate : 192 kb/s
Channel(s) : 2 channels
Channel layout : L R
Sampling rate : 48.0 kHz
Frame rate : 31.250 FPS (1536 SPF)
Compression mode : Lossy
Stream size : 141 MiB (7%)
Title : Original
Language : English
Service kind : Complete Main
Default : No
Forced : No
Text
ID : 4
Format : UTF-8
Codec ID : S_TEXT/UTF8
Codec ID/Info : UTF-8 Plain Text
Duration : 1 h 37 min
Bit rate : 39 b/s
Count of elements : 1039
Stream size : 28.1 KiB (0%)
Language : English
Default : No
Forced : No
ENCODING_INFO : SUBRIP > COPY Быстрое
Menu
00:00:00.000 : :1
00:10:11.000 : :2
00:21:02.000 : :3
00:31:21.000 : :4
00:41:48.000 : :5
00:51:59.000 : :6
01:00:54.000 : :7
01:10:42.000 : :8
01:20:08.000 : :9
01:32:16.000 : :10
01:38:00.000 : :11
Релиз от: &
Профиль [ЛС]
Показать сообщения:    

Текущее время: 20-Окт 05:24

Часовой пояс: UTC ± 0



Вы не можете начинать темы
Вы не можете отвечать на сообщения
Вы не можете редактировать свои сообщения
Вы не можете удалять свои сообщения
Вы не можете голосовать в опросах
Вы не можете прикреплять файлы к сообщениям
Вы не можете скачивать файлы