Статистика раздачи
Нет
 
     
 
 

K15 ®

Пол:
Мужской
Стаж:
8 месяцев 29 дней
Сообщений:
175

- Поезд в Пусан 2: Полуостров / Train to Busan 2 - Информация о фильме:
Название: Поезд в Пусан 2: Полуостров
Оригинальное название: Train to Busan 2
Год выхода: 2020
Жанр: ужасы, триллер, боевик
Режиссер: Сан Хо Ён
В ролях: Дон Вон Кан, Чон Хён Ли, Рэ Ли, Хэ Хё Квон, Мин Чжэ Ким (I), Гё Хван Ку, До Юн Ким, Ё Вон Ли, Гю Бэк Ким, У Чжин Мун, Со Ён Чан, Си Вон Чха, Тхэ Джун Ким, Ён Гён Юн, Мин Сон Ким, Се Джун Пак, Хи Чхоль Син, Дэниэл Джои Олбрайт
Описание: Через четыре года после вспышки страшного вируса, распространение которого Южная Корея сдержать не смогла, то, что осталось от страны, находится в блокаде, а полчища зомби разгуливают по всему полуострову. Бывший военный в составе спецотряда отправляется в закрытую зону, чтобы отыскать припрятанные деньги, и теперь ему предстоит пробираться по жуткому миру, где помимо означенной угрозы опасность представляют и люди, устраивающие жестокие игры на выживание.

Страна: Корея Южная
Студия: Movic Comics, Next Entertainment World, RedPeter Film
Продолжительность: 01:55:35
Перевод: Дублированный - iTunes

Информация о файле:
Кодек: AVC
Формат: MKV
Качество: WEB-DLRip-AVC
Видео: MPEG-4 AVC, 720x302 (2.40:1), 24.000 fps, 809 kbps, 0.155
Аудио RU: AAC-HE, 2 ch, 48 kHz, 96 kbps
Субтитры: русские
Навигация по главам: Да
|
Трейлер

Скриншоты

MediaInfo

x264 info: frame I:1510 Avg QP:14.60 size: 26444
x264 info: frame P:40388 Avg QP:18.67 size: 8486
x264 info: frame B:124549 Avg QP:20.52 size: 2547
x264 info: consecutive B-frames: 3.8% 5.1% 11.3% 23.8% 13.6% 16.5% 23.1% 1.2% 0.4% 0.1% 0.1% 0.9%
======================================
General
Unique ID : 20262214382298176302700851987904093050 (0xF3E5C4C786E2C3938DD4FF1131E5B7A)
Complete name : D:uTorrentРипы_от_wolf1245_MediaBitTrain to Busan 2 2020 from wolf1245 & MediaBit.mkv
Format : Matroska
Format version : Version 4
File size : 748 MiB
Duration : 1 h 55 min
Overall bit rate : 905 kb/s
Movie name : Train to Busan 2 2020 from wolf1245 & MediaBit
Encoded date : UTC 2020-09-19 05:33:35
Writing application : mkvmerge v50.0.0 ('Awakenings') 64-bit
Writing library : libebml v1.4.0 + libmatroska v1.6.2
Video
ID : 1
Format : AVC
Format/Info : Advanced Video Codec
Format profile : High@L4.1
Format settings : CABAC / 11 Ref Frames
Format settings, CABAC : Yes
Format settings, Reference frames : 11 frames
Codec ID : V_MPEG4/ISO/AVC
Duration : 1 h 55 min
Bit rate : 809 kb/s
Width : 720 pixels
Height : 302 pixels
Display aspect ratio : 2.40:1
Frame rate mode : Constant
Frame rate : 24.000 FPS
Color space : YUV
Chroma subsampling : 4:2:0
Bit depth : 8 bits
Scan type : Progressive
Bits/(Pixel*Frame) : 0.155
Stream size : 667 MiB (89%)
Title : wolf1245 & MediaBit
Writing library : x264 core 157 r2958 57baac4
Encoding settings : cabac=1 / ref=11 / deblock=1:-3:-3 / analyse=0x3:0x133 / me=umh / subme=11 / psy=1 / psy_rd=1.00:0.06 / mixed_ref=1 / me_range=48 / chroma_me=1 / trellis=2 / 8x8dct=1 / cqm=0 / deadzone=21,11 / fast_pskip=0 / chroma_qp_offset=-3 / threads=10 / lookahead_threads=2 / sliced_threads=0 / nr=0 / decimate=0 / interlaced=0 / bluray_compat=0 / constrained_intra=0 / bframes=11 / b_pyramid=2 / b_adapt=2 / b_bias=0 / direct=3 / weightb=1 / open_gop=0 / weightp=2 / keyint=240 / keyint_min=24 / scenecut=40 / intra_refresh=0 / rc_lookahead=60 / rc=2pass / mbtree=0 / bitrate=809 / ratetol=1.0 / qcomp=0.60 / qpmin=0 / qpmax=69 / qpstep=4 / cplxblur=20.0 / qblur=0.5 / vbv_maxrate=50000 / vbv_bufsize=62500 / nal_hrd=none / filler=0 / ip_ratio=1.40 / pb_ratio=1.30 / aq=1:1.00
Language : English
Default : Yes
Forced : No
Audio
ID : 2
Format : AAC LC SBR
Format/Info : Advanced Audio Codec Low Complexity with Spectral Band Replication
Commercial name : HE-AAC
Format settings : Implicit
Codec ID : A_AAC-2
Duration : 1 h 55 min
Bit rate : 96.0 kb/s
Channel(s) : 2 channels
Channel layout : L R
Sampling rate : 48.0 kHz
Frame rate : 23.438 FPS (2048 SPF)
Compression mode : Lossy
Stream size : 79.4 MiB (11%)
Title : DUB | [iTunes]
Language : Russian
Default : Yes
Forced : No
Text
ID : 3
Format : UTF-8
Codec ID : S_TEXT/UTF8
Codec ID/Info : UTF-8 Plain Text
Duration : 1 h 50 min
Bit rate : 48 b/s
Count of elements : 943
Stream size : 39.3 KiB (0%)
Title : Full
Language : Russian
Default : Yes
Forced : No
Menu
00:00:00.000 : :Глава 1
00:09:01.041 : :Глава 2
00:16:25.249 : :Глава 3
00:23:38.374 : :Глава 4
00:30:07.624 : :Глава 5
00:36:27.874 : :Глава 6
00:41:59.499 : :Глава 7
00:48:46.082 : :Глава 8
00:56:14.415 : :Глава 9
01:03:23.956 : :Глава 10
01:09:32.163 : :Глава 11
01:15:52.914 : :Глава 12
01:23:05.247 : :Глава 13
01:31:20.080 : :Глава 14
01:37:15.996 : :Глава 15
01:44:09.162 : :Глава 16
Релиз от: &
Профиль [ЛС]
Показать сообщения:    

Текущее время: 21-Окт 05:33

Часовой пояс: UTC ± 0



Вы не можете начинать темы
Вы не можете отвечать на сообщения
Вы не можете редактировать свои сообщения
Вы не можете удалять свои сообщения
Вы не можете голосовать в опросах
Вы не можете прикреплять файлы к сообщениям
Вы не можете скачивать файлы