Статистика раздачи
Нет
 
     
 
 

K15 ®

Пол:
Мужской
Стаж:
9 месяцев 5 дней
Сообщений:
192

Информация о фильме
Название: 365 дней
Оригинальное название: 365 dni / 365 Days
Год выхода: 2019
Жанр: Драма, мелодрама, эротика, экранизация
Режиссер: Барбара Бяловас
В ролях: Анна Мария Сиклуцка, Мишель Морроне, Бронислав Вроцлавский, Отар Саралидзе, Магдалена Лямпарская, Наташа Урбаньска, Гражина Шаполовска, Томаш Стокингер, Джанни Паризи, Матеуш Ласовски
О фильме: Массимо Торричелли - сын погибшего сицилийского мафиози, взявший на себя дело семьи. Жизнь Лауру Биль протекает не так ярко, как у Массимо - она всего лишь директор в отеле. Чтобы встряхнуться, Лаура вместе с подругой летят на Сицилию, где героиня пересекается с красавцем Массимо. Мужчина похищает девушку и дает ей 365 дней на то, чтобы она его полюбила.

Интересные факты

Эротическая драма стала самым просматриваемым фильмом на Netflix.
В национальном (польском) кинопрокате фильм собрал около 9 миллионов долларов.
Сюжет картины основан на бестселлере Бланки Липиньской.
Пользователи TikTok выкладывают видеоролики со своей реакцией на просмотр фильма.

Страна: Польша
Студия: Ekipa, Future Space, Next Film, TVN
Продолжительность: 01:53:58
Перевод: Любительский многоголосый | @MUZOBOZ@
Файл
Кодек: XviD
Качество: WEB-DLRip
Видео: 1630 Кбит/с, 720x368, 24.000 кадр/с
Звук: AC3, 48 Гц, 192 Кбит/сек, 2 ch (L + R) | MVO | @MUZOBOZ@

MI

Общее
Полное имя : D:Торренты365.Days.2020.1080p.NF.WEB-DL.DDP2.0.x264-NTb365.Days.2020.x264.WEB-DLRip-MediaBit.avi
Формат : AVI
Формат/Информация : Audio Video Interleave
Профиль формата : OpenDML
Размер файла : 1,46 Гбайт
Продолжительность : 1 ч. 53 м.
Общий поток : 1 834 Кбит/сек
Название фильма : 365 дней / 365 dni / 365 Days (2020)
Программа кодирования : Lavf58.20.100
Видео
Идентификатор : 0
Формат : MPEG-4 Visual
Профиль формата : Advanced Simple@L5
Настройки формата : BVOP1 / Custom Matrix
Параметр BVOP формата : 1
Параметр QPel формата : Нет
Параметр GMC формата : Без точки перехода
Параметр матрицы формата : Выборочная
Идентификатор кодека : XVID
Идентификатор кодека/Подсказка : XviD
Продолжительность : 1 ч. 53 м.
Битрейт : 1 630 Кбит/сек
Ширина : 720 пикселей
Высота : 368 пикселей
Соотношение сторон : 1,983
Частота кадров : 24,000 кадра/сек
Цветовое пространство : YUV
Субдискретизация насыщенности : 4:2:0
Битовая глубина : 8 бит
Тип развёртки : Прогрессивная
Метод сжатия : С потерями
Бит/(Пиксели*Кадры) : 0.256
Размер потока : 1,30 Гбайт (89%)
Библиотека кодирования : XviD 67
Аудио
Идентификатор : 1
Формат : AC-3
Формат/Информация : Audio Coding 3
Коммерческое название : Dolby Digital
Идентификатор кодека : 2000
Продолжительность : 1 ч. 53 м.
Вид битрейта : Постоянный
Битрейт : 192 Кбит/сек
Каналы : 2 канала
Channel layout : L R
Частота : 48,0 КГц
Частота кадров : 31,250 кадров/сек (1536 SPF)
Битовая глубина : 16 бит
Метод сжатия : С потерями
Размер потока : 157 Мбайт (10%)
Выравнивание : Соединение по промежуткам
Продолжительность промежутка : 32 мс. (0,77 видеокадр)
Заголовок : MVO [@MUZOBOZ@] MediaBit
Service kind : Complete Main

Скриншоты

Релиз от:
Профиль [ЛС]
Показать сообщения:    

Текущее время: 27-Окт 21:04

Часовой пояс: UTC ± 0



Вы не можете начинать темы
Вы не можете отвечать на сообщения
Вы не можете редактировать свои сообщения
Вы не можете удалять свои сообщения
Вы не можете голосовать в опросах
Вы не можете прикреплять файлы к сообщениям
Вы не можете скачивать файлы