Статистика раздачи
Нет
 
     
 
 

K15 ®

Пол:
Мужской
Стаж:
8 месяцев 29 дней
Сообщений:
175

Информация о фильме
Название: 365 дней
Оригинальное название: 365 dni / 365 Days
Год выхода: 2019
Жанр: Драма, мелодрама, эротика, экранизация
Режиссер: Барбара Бяловас
В ролях: Анна Мария Сиклуцка, Мишель Морроне, Бронислав Вроцлавский, Отар Саралидзе, Магдалена Лямпарская, Наташа Урбаньска, Гражина Шаполовска, Томаш Стокингер, Джанни Паризи, Матеуш Ласовски
О фильме: Массимо Торричелли - сын погибшего сицилийского мафиози, взявший на себя дело семьи. Жизнь Лауру Биль протекает не так ярко, как у Массимо - она всего лишь директор в отеле. Чтобы встряхнуться, Лаура вместе с подругой летят на Сицилию, где героиня пересекается с красавцем Массимо. Мужчина похищает девушку и дает ей 365 дней на то, чтобы она его полюбила.

Интересные факты

Эротическая драма стала самым просматриваемым фильмом на Netflix.
В национальном (польском) кинопрокате фильм собрал около 9 миллионов долларов.
Сюжет картины основан на бестселлере Бланки Липиньской.
Пользователи TikTok выкладывают видеоролики со своей реакцией на просмотр фильма.

Страна: Польша
Студия: Ekipa, Future Space, Next Film, TVN
Продолжительность: 01:53:58
Перевод: Любительский многоголосый | @MUZOBOZ@
Файл
Кодек: MPEG-4 AVC
Качество: WEB-DL 1080p
Видео: 3160 Кбит/с, 1920x1080, 24.000 кадр/с
Звук:
Аудио #1: AC3, 48 Гц, 192 Кбит/сек, 2 ch (L + R) | MVO | @MUZOBOZ@
Аудио #2: AC3, 48 Гц, 192 Кбит/сек, 2 ch (L + R) | Английский
Субтитры: Русские, английские, польские

MI

Общее
Уникальный идентификатор : 79837479006158779753332305996288578015 (0x3C10239F598BE816251D291D5D8751DF)
Полное имя : D:Торренты365.Days.2020.1080p.NF.WEB-DL.DDP2.0.x264-NTb365.Days.2020.x264.WEB-DL-1080p-MediaBit.mkv
Формат : Matroska
Версия формата : Version 4
Размер файла : 2,82 Гбайт
Продолжительность : 1 ч. 53 м.
Режим общего битрейта : Переменный
Общий поток : 3 536 Кбит/сек
Название фильма : 365 дней / 365 dni / 365 Days (2020)
Дата кодирования : UTC 2020-09-18 11:21:14
Программа кодирования : mkvmerge v25.0.0 ('Prog Noir') 64-bit
Библиотека кодирования : libebml v1.3.6 + libmatroska v1.4.9
Видео
Идентификатор : 1
Формат : AVC
Формат/Информация : Advanced Video Codec
Профиль формата : Main@L4
Настройки формата : CABAC / 3 Ref Frames
Параметр CABAC формата : Да
Параметр RefFrames формата : 3 кадра
Идентификатор кодека : V_MPEG4/ISO/AVC
Продолжительность : 1 ч. 53 м.
Вид битрейта : Переменный
Битрейт : 3 160 Кбит/сек
Максимальный битрейт : 4 740 Кбит/сек
Ширина : 1 920 пикселей
Высота : 1 080 пикселей
Соотношение сторон : 16:9
Режим частоты кадров : Постоянный
Частота кадров : 24,000 кадра/сек
Цветовое пространство : YUV
Субдискретизация насыщенности : 4:2:0
Битовая глубина : 8 бит
Тип развёртки : Прогрессивная
Бит/(Пиксели*Кадры) : 0.063
Размер потока : 2,51 Гбайт (89%)
Библиотека кодирования : x264 core 148 r2717 0d2410d
Настройки программы : cabac=1 / ref=3 / deblock=1:0:0 / analyse=0x1:0x111 / me=umh / subme=10 / psy=1 / psy_rd=1.00:0.00 / mixed_ref=1 / me_range=24 / chroma_me=1 / trellis=2 / 8x8dct=0 / cqm=0 / deadzone=21,11 / fast_pskip=1 / chroma_qp_offset=-2 / threads=8 / lookahead_threads=1 / sliced_threads=0 / nr=0 / decimate=1 / interlaced=0 / bluray_compat=0 / stitchable=1 / constrained_intra=0 / bframes=2 / b_pyramid=0 / b_adapt=2 / b_bias=0 / direct=3 / weightb=1 / open_gop=0 / weightp=2 / keyint=250 / keyint_min=24 / scenecut=0 / intra_refresh=0 / rc_lookahead=48 / rc=2pass / mbtree=1 / bitrate=3160 / ratetol=1.0 / qcomp=0.50 / qpmin=6 / qpmax=51 / qpstep=4 / cplxblur=20.0 / qblur=0.5 / vbv_maxrate=4740 / vbv_bufsize=6320 / nal_hrd=vbr / filler=0 / ip_ratio=1.40 / aq=1:1.00
Default : Да
Forced : Нет
Аудио #1
Идентификатор : 2
Формат : AC-3
Формат/Информация : Audio Coding 3
Коммерческое название : Dolby Digital
Идентификатор кодека : A_AC3
Продолжительность : 1 ч. 53 м.
Вид битрейта : Постоянный
Битрейт : 192 Кбит/сек
Каналы : 2 канала
Channel layout : L R
Частота : 48,0 КГц
Частота кадров : 31,250 кадров/сек (1536 SPF)
Метод сжатия : С потерями
Размер потока : 157 Мбайт (5%)
Заголовок : MVO [@MUZOBOZ@] MediaBit
Язык : Russian
Service kind : Complete Main
Default : Да
Forced : Нет
Аудио #2
Идентификатор : 3
Формат : AC-3
Формат/Информация : Audio Coding 3
Коммерческое название : Dolby Digital
Идентификатор кодека : A_AC3
Продолжительность : 1 ч. 53 м.
Вид битрейта : Постоянный
Битрейт : 192 Кбит/сек
Каналы : 2 канала
Channel layout : L R
Частота : 48,0 КГц
Частота кадров : 31,250 кадров/сек (1536 SPF)
Метод сжатия : С потерями
Размер потока : 157 Мбайт (5%)
Заголовок : Английский+польский
Язык : English
Service kind : Complete Main
Default : Нет
Forced : Нет
Текст #1
Идентификатор : 4
Формат : UTF-8
Идентификатор кодека : S_TEXT/UTF8
Идентификатор кодека/Информация : UTF-8 Plain Text
Продолжительность : 1 ч. 53 м.
Битрейт : 44 бит/сек
Count of elements : 876
Размер потока : 36,6 Кбайт (0%)
Заголовок : Русские
Язык : Russian
Default : Нет
Forced : Нет
Текст #2
Идентификатор : 5
Формат : UTF-8
Идентификатор кодека : S_TEXT/UTF8
Идентификатор кодека/Информация : UTF-8 Plain Text
Продолжительность : 1 ч. 48 м.
Битрейт : 19 бит/сек
Count of elements : 560
Размер потока : 15,6 Кбайт (0%)
Язык : Polish
Default : Нет
Forced : Нет
Текст #3
Идентификатор : 6
Формат : UTF-8
Идентификатор кодека : S_TEXT/UTF8
Идентификатор кодека/Информация : UTF-8 Plain Text
Продолжительность : 1 ч. 53 м.
Битрейт : 56 бит/сек
Count of elements : 1515
Размер потока : 47,3 Кбайт (0%)
Язык : English
Default : Нет
Forced : Нет

Скриншоты

Релиз от:
Профиль [ЛС]
Показать сообщения:    

Текущее время: 21-Окт 04:36

Часовой пояс: UTC ± 0



Вы не можете начинать темы
Вы не можете отвечать на сообщения
Вы не можете редактировать свои сообщения
Вы не можете удалять свои сообщения
Вы не можете голосовать в опросах
Вы не можете прикреплять файлы к сообщениям
Вы не можете скачивать файлы