Статистика раздачи
Нет
 
     
 
 

K15 ®

Пол:
Мужской
Стаж:
9 месяцев 5 дней
Сообщений:
192

Информация о фильме
Название: Совсем не Золушка
Оригинальное название: Not Cinderella's Type
Год выхода: 2018
Жанр: Мелодрама
Режиссер: Брайан Бру
В ролях: Пэрис Уорнер, Скотт Кристофер, ДжейДжей Ньюард, Ариана Бэгли, Чарла Кохрэн
О фильме: Современный пересказ Золушки, основанный на одноименном романе Дженни Джеймс, поведает о молодой девушке Инди Циммерман, чья жизнь далека от совершенства. Ее приемные родители, которые приходятся ей родными дядей и тетей, относятся к ней как к прислуге, а сестры постоянно досаждают своими глупыми выходками. Но все меняется, когда несчастный случай, унесший жизнь ее любимой кошки, сталкивает Инди с парнем по имени Брайант Бэйли. Героиня не хочет иметь с ним ничего общего, однако вскоре понимает, что первое впечатление может быть обманчивым...

Страна: США
Студия: Silver Peak Productions
Продолжительность: 01:37:03
Перевод: Любительский многоголосый | Синема Ус
Файл
Кодек: XviD
Качество: WEB-DLRip
Видео: 1948 Кбит/с, 720x400, 23.976 кадр/с
Звук: AC3, 48 Гц, 192 Кбит/сек, 2 ch (L + R) | MVO | Синема Ус

MI

Общее
Полное имя : D:ТоррентыNot.Cinderellas.Type.2018.1080p.AMZN.WEBRip.DDP2.0.x264-SiGMA[TGx]Sovsem.ne.Zolushka.2018.XviD.WEB-DLRip-MediaBit.avi
Формат : AVI
Формат/Информация : Audio Video Interleave
Профиль формата : OpenDML
Размер файла : 1,46 Гбайт
Продолжительность : 1 ч. 37 м.
Общий поток : 2 152 Кбит/сек
Название фильма : Not Cinderella's Type (2018)
Программа кодирования : Lavf58.20.100
Видео
Идентификатор : 0
Формат : MPEG-4 Visual
Профиль формата : Advanced Simple@L5
Настройки формата : BVOP1 / Custom Matrix
Параметр BVOP формата : 1
Параметр QPel формата : Нет
Параметр GMC формата : Без точки перехода
Параметр матрицы формата : Выборочная
Идентификатор кодека : XVID
Идентификатор кодека/Подсказка : XviD
Продолжительность : 1 ч. 37 м.
Битрейт : 1 948 Кбит/сек
Ширина : 720 пикселей
Высота : 400 пикселей
Соотношение сторон : 16:9
Частота кадров : 23,976 (24000/1001) кадра/сек
Цветовое пространство : YUV
Субдискретизация насыщенности : 4:2:0
Битовая глубина : 8 бит
Тип развёртки : Прогрессивная
Метод сжатия : С потерями
Бит/(Пиксели*Кадры) : 0.282
Размер потока : 1,32 Гбайт (91%)
Заголовок : MediaBit
Библиотека кодирования : XviD 67
Аудио
Идентификатор : 1
Формат : AC-3
Формат/Информация : Audio Coding 3
Коммерческое название : Dolby Digital
Идентификатор кодека : 2000
Продолжительность : 1 ч. 37 м.
Вид битрейта : Постоянный
Битрейт : 192 Кбит/сек
Каналы : 2 канала
Channel layout : L R
Частота : 48,0 КГц
Частота кадров : 31,250 кадров/сек (1536 SPF)
Битовая глубина : 16 бит
Метод сжатия : С потерями
Размер потока : 133 Мбайт (9%)
Выравнивание : Соединение по промежуткам
Продолжительность промежутка : 32 мс. (0,77 видеокадр)
Заголовок : MVO [Sinema US] MediaBit
Service kind : Complete Main

Скриншоты

Релиз от:
Профиль [ЛС]
Показать сообщения:    

Текущее время: 27-Окт 20:17

Часовой пояс: UTC ± 0



Вы не можете начинать темы
Вы не можете отвечать на сообщения
Вы не можете редактировать свои сообщения
Вы не можете удалять свои сообщения
Вы не можете голосовать в опросах
Вы не можете прикреплять файлы к сообщениям
Вы не можете скачивать файлы