Статистика раздачи
Нет
 
     
 
 

K15 ®

Пол:
Мужской
Стаж:
9 месяцев 6 дней
Сообщений:
192

- Совсем не Золушка / Not Cinderella's Type - Информация о фильме:
Название: Совсем не Золушка
Оригинальное название: Not Cinderella's Type
Год выхода: 2018
Жанр: Мелодрама
Режиссер: Брайан Бру
В ролях: Пэрис Уорнер, Скотт Кристофер, ДжейДжей Ньюард, Ариана Бэгли, Чарла Кохрэн
Описание: Современный пересказ Золушки, основанный на одноименном романе Дженни Джеймс, поведает о молодой девушке Инди Циммерман, чья жизнь далека от совершенства. Ее приемные родители, которые приходятся ей родными дядей и тетей, относятся к ней как к прислуге, а сестры постоянно досаждают своими глупыми выходками. Но все меняется, когда несчастный случай, унесший жизнь ее любимой кошки, сталкивает Инди с парнем по имени Брайант Бэйли. Героиня не хочет иметь с ним ничего общего, однако вскоре понимает, что первое впечатление может быть обманчивым...

Страна: США
Студия: Silver Peak Productions
Продолжительность: 01:37:03
Перевод: Любительский (многоголосый, закадровый) - Синема Ус

Информация о файле:
Кодек: AVC
Формат: MKV
Качество: WEB-DLRip-AVC
Видео: MPEG-4 AVC, 1024x576 (16:9), 2 622 kb/s, 23.976 fps, 0.185
Аудио RU: AC3, 2 ch, 48 kHz, 192 kbps
Субтитры: Английские

Трейлер

MediaInfo

General
Unique ID : 158942843557944137486789899289984425946 (0x77934737290C47C2F2EE6EFF3F52DFDA)
Complete name : D:uTorrentРипы_от_wolf1245_MediaBitNot Cinderella's Type (2018) from wolf1245 & MediaBit.mkv
Format : Matroska
Format version : Version 4
File size : 1.91 GiB
Duration : 1 h 37 min
Overall bit rate : 2 811 kb/s
Movie name : Not Cinderella's Type (2018) from wolf1245 & MediaBit
Encoded date : UTC 2020-09-14 02:18:58
Writing application : mkvmerge v50.0.0 ('Awakenings') 64-bit
Writing library : libebml v1.4.0 + libmatroska v1.6.2
Video
ID : 1
Format : AVC
Format/Info : Advanced Video Codec
Format profile : High@L4.1
Format settings : CABAC / 11 Ref Frames
Format settings, CABAC : Yes
Format settings, Reference frames : 11 frames
Codec ID : V_MPEG4/ISO/AVC
Duration : 1 h 37 min
Bit rate : 2 622 kb/s
Width : 1 024 pixels
Height : 576 pixels
Display aspect ratio : 16:9
Frame rate mode : Constant
Frame rate : 23.976 (24000/1001) FPS
Color space : YUV
Chroma subsampling : 4:2:0
Bit depth : 8 bits
Scan type : Progressive
Bits/(Pixel*Frame) : 0.185
Stream size : 1.77 GiB (93%)
Title : wolf1245 & MediaBit
Writing library : x264 core 157 r2958 57baac4
Encoding settings : cabac=1 / ref=11 / deblock=1:-3:-3 / analyse=0x3:0x133 / me=umh / subme=11 / psy=1 / psy_rd=1.00:0.15 / mixed_ref=1 / me_range=48 / chroma_me=1 / trellis=2 / 8x8dct=1 / cqm=0 / deadzone=21,11 / fast_pskip=0 / chroma_qp_offset=-3 / threads=10 / lookahead_threads=2 / sliced_threads=0 / nr=0 / decimate=0 / interlaced=0 / bluray_compat=0 / constrained_intra=0 / bframes=11 / b_pyramid=2 / b_adapt=2 / b_bias=0 / direct=3 / weightb=1 / open_gop=0 / weightp=2 / keyint=240 / keyint_min=24 / scenecut=40 / intra_refresh=0 / rc_lookahead=60 / rc=2pass / mbtree=0 / bitrate=2622 / ratetol=1.0 / qcomp=0.60 / qpmin=0 / qpmax=69 / qpstep=4 / cplxblur=20.0 / qblur=0.5 / vbv_maxrate=50000 / vbv_bufsize=62500 / nal_hrd=none / filler=0 / ip_ratio=1.40 / pb_ratio=1.30 / aq=2:1.00
Language : English
Default : Yes
Forced : No
Color range : Limited
Color primaries : BT.709
Transfer characteristics : BT.709
Matrix coefficients : BT.709
Audio
ID : 2
Format : AC-3
Format/Info : Audio Coding 3
Commercial name : Dolby Digital
Codec ID : A_AC3
Duration : 1 h 37 min
Bit rate mode : Constant
Bit rate : 192 kb/s
Channel(s) : 2 channels
Channel layout : L R
Sampling rate : 48.0 kHz
Frame rate : 31.250 FPS (1536 SPF)
Compression mode : Lossy
Stream size : 133 MiB (7%)
Title : MVO [Синема УС] MediaBit
Language : Russian
Service kind : Complete Main
Default : Yes
Forced : No
Text
ID : 3
Format : UTF-8
Codec ID : S_TEXT/UTF8
Codec ID/Info : UTF-8 Plain Text
Duration : 1 h 34 min
Bit rate : 78 b/s
Count of elements : 1859
Stream size : 54.2 KiB (0%)
Title : English
Language : English
Default : No
Forced : No
Релиз от: &
Профиль [ЛС]
Показать сообщения:    

Текущее время: 29-Окт 08:53

Часовой пояс: UTC ± 0



Вы не можете начинать темы
Вы не можете отвечать на сообщения
Вы не можете редактировать свои сообщения
Вы не можете удалять свои сообщения
Вы не можете голосовать в опросах
Вы не можете прикреплять файлы к сообщениям
Вы не можете скачивать файлы