BitTorrent клиенты



Змея и цветок / Flower and Snake / Hana to hebi (Такаши Ишии / Takashi Ishii) [2004, Япония, драма, триллер, эротика, BDRip 1080p] Sub Rus, Eng + Original Jap

Ответить на тему
 
Автор Сообщение

Keeper ®

Пол: Не указан

Стаж: 1 год

Сообщений: 499

Создавать темы 07-Фев-2018 20:49

[Цитировать]

Змея и цветок / Flower and Snake / Hana to hebi
Страна: Япония
Студия: Femme Fatale, Toei Video Company
Жанр: драма, триллер, эротика
Год выпуска: 2004
Продолжительность: 01:54:36
Перевод: Субтитры
Субтитры: русские, английские
Оригинальная аудиодорожка: японский
Режиссер: Такаши Ишии / Takashi Ishii
В ролях: Ая Сугимото, Рэндзи Исибаси, Кеничи Эндо, Мисаки Мори, Йошиюки Ямагучи, Шун Накаяма, Шигео Кобаяши, Наоки Мацуда
Описание: Сидзуко Тояма — известная на всю Японию исполнительница танго. К тому же она замужем за успешным бизнесменом.
Но в один день ее видит престарелый якудза и жизнь супругов резко меняется. Мужа Сидзуко принуждают расплатиться за огромные долги женой. Тояма соглашается, наивно полагая, что все, на что способен 95-ти летний старец, это жаждать посмотреть на голую танцующую Сидзуко. Он еще не знает, как дорого Сидзуко, да и он сам заплатят за это заблуждение.
II Сэмпл II IMDB II
Релиз группа:

Доп. информация:
Английские субтитры распознаны с исходника.
За русские субтитры спасибо winjoo
ВНИМАНИЕ! Этот фильм имеет возрастное ограничение 18+
Тип релиза: BDRip 1080p
Контейнер: MKV
Видео: AVC / 1916x1080 / 16:9 / 23.976fps / Bit rate 11000Kbps / High@L4.1
Аудио 1: Flac / 48.0 KHz / 2ch. / 633kbps / 16bit / jap
Аудио 2: AC3 / 48.0 KHz / 2ch. / 192kbps / jap
Формат субтитров: softsub (SRT)

MediaInfo

Общее
Уникальный идентификатор : 201686493599565759429571509656127467355 (0x97BB67DE96C119B59E6925281322EF5B)
Полное имя : G:\Flower.And.Snake.2004.BDRip.1080p_by_vedigo.mkv
Формат : Matroska
Версия формата : Version 4 / Version 2
Размер файла : 9,25 Гбайт
Продолжительность : 1 ч. 54 м.
Режим общего битрейта : Переменный
Общий поток : 11,6 Мбит/сек
Название фильма : Flower.And.Snake.2004.BDRip.1080p_by_vedigo
Дата кодирования : UTC 2015-12-21 06:06:11
Программа кодирования : mkvmerge v8.6.1 ('Flying') 64bit
Библиотека кодирования : libebml v1.3.3 + libmatroska v1.4.4
Видео
Идентификатор : 1
Формат : AVC
Формат/Информация : Advanced Video Codec
Профиль формата : High@L4.1
Параметр CABAC формата : Да
Параметр ReFrames формата : 4 кадра
Идентификатор кодека : V_MPEG4/ISO/AVC
Продолжительность : 1 ч. 52 м.
Битрейт : 11,0 Мбит/сек
Ширина : 1916 пикселей
Высота : 1080 пикселей
Соотношение сторон : 16:9
Режим частоты кадров : Постоянный
Частота кадров : 23,976 (24000/1001) кадра/сек
Цветовое пространство : YUV
Субдискретизация насыщенности : 4:2:0
Битовая глубина : 8 бит
Тип развёртки : Прогрессивная
Бит/(Пиксели*Кадры) : 0.222
Размер потока : 8,61 Гбайт (93%)
Заголовок : Flower.And.Snake.2004.BDRip.1080p_by_vedigo
Библиотека кодирования : x264 core 148 r2638 7599210
Настройки программы : cabac=1 / ref=4 / deblock=1:-3:-3 / analyse=0x3:0x133 / me=umh / subme=11 / psy=0 / mixed_ref=1 / me_range=64 / chroma_me=1 / trellis=2 / 8x8dct=1 / cqm=0 / deadzone=21,11 / fast_pskip=0 / chroma_qp_offset=0 / threads=12 / lookahead_threads=2 / sliced_threads=0 / nr=0 / decimate=1 / interlaced=0 / bluray_compat=0 / constrained_intra=0 / bframes=8 / b_pyramid=2 / b_adapt=2 / b_bias=0 / direct=3 / weightb=1 / open_gop=0 / weightp=2 / keyint=250 / keyint_min=23 / scenecut=40 / intra_refresh=0 / rc_lookahead=40 / rc=2pass / mbtree=0 / bitrate=11000 / ratetol=1.0 / qcomp=0.60 / qpmin=0 / qpmax=69 / qpstep=4 / cplxblur=20.0 / qblur=0.5 / vbv_maxrate=50000 / vbv_bufsize=62500 / nal_hrd=none / filler=0 / ip_ratio=1.40 / pb_ratio=1.30 / aq=1:0.80
Язык : Japanese
Default : Да
Forced : Нет
Аудио #1
Идентификатор : 2
Формат : FLAC
Формат/Информация : Free Lossless Audio Codec
Идентификатор кодека : A_FLAC
Продолжительность : 1 ч. 52 м.
Вид битрейта : Переменный
Битрейт : 633 Кбит/сек
Каналы : 2 канала
Расположение каналов : Front: L R
Частота : 48,0 КГц
Частота кадров : 11,719 кадров/сек (4096 spf)
Битовая глубина : 16 бит
Размер потока : 507 Мбайт (5%)
Заголовок : original Flac
Библиотека кодирования : libFLAC 20080709 (UTC 2008-07-09)
Язык : Japanese
Default : Да
Forced : Нет
Аудио #2
Идентификатор : 3
Формат : AC-3
Формат/Информация : Audio Coding 3
Расширение режима : CM (complete main)
Параметр Endianness формата : Big
Идентификатор кодека : A_AC3
Продолжительность : 1 ч. 52 м.
Вид битрейта : Постоянный
Битрейт : 192 Кбит/сек
Каналы : 2 канала
Расположение каналов : Front: L R
Частота : 48,0 КГц
Частота кадров : 31,250 кадров/сек (1536 spf)
Метод сжатия : С потерями
Размер потока : 154 Мбайт (2%)
Заголовок : original AC3
Язык : Japanese
Default : Нет
Forced : Нет
Текст #1
Идентификатор : 4
Формат : UTF-8
Идентификатор кодека : S_TEXT/UTF8
Идентификатор кодека/Информация : UTF-8 Plain Text
Продолжительность : 1 ч. 53 м.
Битрейт : 31 бит/сек
Count of elements : 684
Размер потока : 25,8 Кбайт (0%)
Заголовок : subtitle rus
Язык : Russian
Default : Да
Forced : Нет
Текст #2
Идентификатор : 5
Формат : UTF-8
Идентификатор кодека : S_TEXT/UTF8
Идентификатор кодека/Информация : UTF-8 Plain Text
Продолжительность : 1 ч. 50 м.
Битрейт : 15 бит/сек
Count of elements : 764
Размер потока : 12,6 Кбайт (0%)
Заголовок : subtitle eng
Язык : English
Default : Нет
Forced : Нет
Меню
00:00:00.000 : en:00:00:00.000
00:08:56.953 : en:00:08:56.953
00:21:58.943 : en:00:21:58.943
00:27:59.720 : en:00:27:59.720
00:36:52.836 : en:00:36:52.836
00:46:21.654 : en:00:46:21.654
00:54:10.247 : en:00:54:10.247
01:03:47.532 : en:01:03:47.532
01:11:40.922 : en:01:11:40.922
01:20:02.172 : en:01:20:02.172
01:27:40.505 : en:01:27:40.505
01:37:02.400 : en:01:37:02.400

Скриншоты


Сравнение с исходником





x264 info

x264 [info]: using SAR=1/1
x264 [info]: using cpu capabilities: MMX2 SSE2Fast SSSE3 SSE4.2 AVX
x264 [info]: profile High, level 4.1
x264 [info]: frame I:916 Avg QP:11.64 size:162025
x264 [info]: frame P:41696 Avg QP:13.70 size: 88024
x264 [info]: frame B:118559 Avg QP:15.64 size: 45739
x264 [info]: consecutive B-frames: 5.8% 5.1% 15.4% 6.1% 6.6% 59.6% 1.0% 0.1% 0.3%
x264 [info]: mb I I16..4: 20.3% 39.7% 40.0%
x264 [info]: mb P I16..4: 16.5% 33.1% 20.9% P16..4: 11.9% 9.9% 2.1% 0.1% 0.0% skip: 5.4%
x264 [info]: mb B I16..4: 11.4% 14.4% 4.1% B16..8: 28.7% 18.5% 3.0% direct: 6.3% skip:13.7% L0:49.6% L1:41.1% BI: 9.3%
x264 [info]: 8x8 transform intra:47.4% inter:51.0%
x264 [info]: direct mvs spatial:97.9% temporal:2.1%
x264 [info]: coded y,uvDC,uvAC intra: 62.7% 91.7% 74.5% inter: 25.1% 46.8% 7.6%
x264 [info]: i16 v,h,dc,p: 24% 22% 37% 16%
x264 [info]: i8 v,h,dc,ddl,ddr,vr,hd,vl,hu: 19% 18% 41% 3% 3% 4% 3% 3% 4%
x264 [info]: i4 v,h,dc,ddl,ddr,vr,hd,vl,hu: 33% 20% 38% 2% 2% 2% 2% 1% 1%
x264 [info]: i8c dc,h,v,p: 52% 25% 14% 9%
x264 [info]: Weighted P-Frames: Y:3.2% UV:1.9%
x264 [info]: ref P L0: 54.7% 6.5% 26.2% 10.3% 2.2% 0.0%
x264 [info]: ref B L0: 87.3% 10.3% 2.4%
x264 [info]: ref B L1: 93.3% 6.7%
x264 [info]: kb/s:10998.11
[Профиль] [ЛС]
Показать сообщения:    
Ответить на тему

Текущее время: 19-Фев 23:55

Часовой пояс: UTC + 3



Вы не можете начинать темы
Вы не можете отвечать на сообщения
Вы не можете редактировать свои сообщения
Вы не можете удалять свои сообщения
Вы не можете голосовать в опросах
Вы не можете прикреплять файлы к сообщениям
Вы можете скачивать файлы