Статистика раздачи
Нет
 
     
 
 

MAGNAT ®

Пол:
Мужской
Стаж:
1 год 6 месяцев
Сообщений:
9039

История Дэвида Копперфилда / The Personal History of David Copperfield
«From rags to riches... and back again»
Страна: Великобритания, США
Жанр: Драма, комедия
Год выпуска: 2019
Продолжительность: 01:59:38-Перевод: Профессиональный (дублированный) | (iTunes)
Cубтитры: Русские (Full-length - iTunes, FOCs), Английские (Full, SDH)
Оригинальная аудиодорожка: Английский-Режиссёр: Армандо Ианнуччи / Armando Iannucci
В ролях: Дев Патель, Хью Лори, Тильда Суинтон, Фисайо Акинаде, Никки Амука-Бёрд, Элби Эткинсон, Анайрин Барнард, Тувэйн Барретт, Найджел Беттс, Руби Бенталл
Описание: История Дэвида Копперфилда началась в кипящем от событий Лондоне, где перемешались большие деньги, модные районы и предприниматели всех мастей. Пройдя путь от неприкаянного ребенка до известного писателя, он всего добивался сам и был готов на безумство ради любви. Копперфилд – это живой символ эпохи, в которую хочется возвращаться вновь и вновь.-Тип релиза: BDRemux 1080p
Контейнер: MKV-Видео: AVC/H.264, 1920x1080, 32987 kbps , 23.976 fps
Аудио 1: Русский | AC-3, 6 ch, 384 Kbps, 48.0 kHz
Аудио 2: Английский | DTS-HD MA, 6 ch, 3233 Kbps, 48.0 kHz, 24-bit (DTS Core: 5.1 / 48 kHz / 768 kbps / 24-bit)
-

MediaInfo

Код:
General
Unique ID : 113177732277958935363127806203457827040 (0x55253D055ED4A4F6F7E9E26F985DF0E0)
Complete name : /Volumes/Promise Pegasus/The.Personal.History.of.David.Copperfield.BDRemux.1080p.mkv
Format : Matroska
Format version : Version 4
File size : 30.6 GiB
Duration : 1 h 59 min
Overall bit rate mode : Variable
Overall bit rate : 36.6 Mb/s
Movie name : The Personal History of David Copperfield BDRemux 1080p
Encoded date : UTC 2020-09-16 23:45:48
Writing application : mkvmerge v49.0.0 ('Sick Of Losing Soulmates') 64-bit
Writing library : libebml v1.4.0 + libmatroska v1.6.1
Video
ID : 1
Format : AVC
Format/Info : Advanced Video Codec
Format profile : High@L4.1
Format settings : CABAC / 4 Ref Frames
Format settings, CABAC : Yes
Format settings, Reference frames : 4 frames
Codec ID : V_MPEG4/ISO/AVC
Duration : 1 h 59 min
Bit rate mode : Variable
Bit rate : 33.0 Mb/s
Maximum bit rate : 38.0 Mb/s
Width : 1 920 pixels
Height : 1 080 pixels
Display aspect ratio : 16:9
Frame rate mode : Constant
Frame rate : 23.976 (24000/1001) FPS
Color space : YUV
Chroma subsampling : 4:2:0
Bit depth : 8 bits
Scan type : Progressive
Bits/(Pixel*Frame) : 0.664
Stream size : 27.6 GiB (90%)
Language : English
Default : Yes
Forced : No
Audio #1
ID : 2
Format : AC-3
Format/Info : Audio Coding 3
Commercial name : Dolby Digital
Codec ID : A_AC3
Duration : 1 h 59 min
Bit rate mode : Constant
Bit rate : 384 kb/s
Channel(s) : 6 channels
Channel layout : L R C LFE Ls Rs
Sampling rate : 48.0 kHz
Frame rate : 31.250 FPS (1536 SPF)
Compression mode : Lossy
Stream size : 328 MiB (1%)
Title : Russian Dub iTunes
Language : Russian
Service kind : Complete Main
Default : Yes
Forced : No
Audio #2
ID : 3
Format : DTS XLL
Format/Info : Digital Theater Systems
Commercial name : DTS-HD Master Audio
Codec ID : A_DTS
Duration : 1 h 59 min
Bit rate mode : Variable
Bit rate : 3 233 kb/s
Channel(s) : 6 channels
Channel layout : C L R Ls Rs LFE
Sampling rate : 48.0 kHz
Frame rate : 93.750 FPS (512 SPF)
Bit depth : 24 bits
Compression mode : Lossless
Stream size : 2.70 GiB (9%)
Title : English Original
Language : English
Default : No
Forced : No
Text #1
ID : 4
Format : UTF-8
Codec ID : S_TEXT/UTF8
Codec ID/Info : UTF-8 Plain Text
Duration : 1 h 55 min
Bit rate : 125 b/s
Count of elements : 2042
Stream size : 106 KiB (0%)
Title : Russian full iTunes
Language : Russian
Default : No
Forced : No
Text #2
ID : 5
Format : UTF-8
Codec ID : S_TEXT/UTF8
Codec ID/Info : UTF-8 Plain Text
Duration : 1 h 56 min
Bit rate : 133 b/s
Count of elements : 1850
Stream size : 114 KiB (0%)
Title : Russian full FOCS
Language : Russian
Default : No
Forced : No
Text #3
ID : 6
Format : UTF-8
Codec ID : S_TEXT/UTF8
Codec ID/Info : UTF-8 Plain Text
Duration : 1 h 58 min
Bit rate : 78 b/s
Count of elements : 1838
Stream size : 67.7 KiB (0%)
Title : English full
Language : English
Default : No
Forced : No
Text #4
ID : 7
Format : UTF-8
Codec ID : S_TEXT/UTF8
Codec ID/Info : UTF-8 Plain Text
Duration : 1 h 58 min
Bit rate : 83 b/s
Count of elements : 1943
Stream size : 72.4 KiB (0%)
Title : English SDH
Language : English
Default : No
Forced : No
Menu
00:00:00.000 : en:Chapter 01
00:04:55.879 : en:Chapter 02
00:14:56.395 : en:Chapter 03
00:23:55.017 : en:Chapter 04
00:33:04.983 : en:Chapter 05
00:42:44.395 : en:Chapter 06
00:51:51.942 : en:Chapter 07
01:03:33.935 : en:Chapter 08
01:12:23.339 : en:Chapter 09
01:23:47.898 : en:Chapter 10
01:36:58.604 : en:Chapter 11
01:49:34.193 : en:Chapter 12

Скриншоты

Профиль [ЛС]
Показать сообщения:    

Текущее время: 21-Окт 07:15

Часовой пояс: UTC ± 0



Вы не можете начинать темы
Вы не можете отвечать на сообщения
Вы не можете редактировать свои сообщения
Вы не можете удалять свои сообщения
Вы не можете голосовать в опросах
Вы не можете прикреплять файлы к сообщениям
Вы не можете скачивать файлы