Статистика раздачи
Размер:  1,46 GB   |    Зарегистрирован:  3 месяца 12 дней   |    Скачан:  0 раз

Полного источника не было: Никогда

 
   
 
 

lopster ®

Пол:
Не указан
Стаж:
3 месяца 12 дней
Сообщений:
612

Я остаюсь Жанр: трагикомедия, драма
Год выпуска: 2006
Продолжительность: 01:52:42
Режиссёр: Карен Оганесян
В ролях: Андрей Краско (озвуч. Семён Фурман), Фёдор Бондарчук, Елена Яковлева, Нелли Уварова, Андрей Соколов, Владимир Епифанцев, Алёна Бондарчук, Ирина Гринёва, Галина Польских, Константин Соловьёв, Георгий Мартиросьян, Евгений Жариков
Описание: Философская трагикомедия.
Многие подозревают, что после смерти жизнь не заканчивается. Доктор Тырса, человек практичный и скептически настроенный по отношению ко всему, в такую ерунду никогда не верил. Пока по вине неловко брошенного шара для боулинга не оказался на пустынной равнине вместе с такими же, как он — людьми уже не принадлежащими этому миру, но ещё и не принятыми в мир иной. Тут-то и понял Виктор Павлович Тырса, что жизнь, которой он жил до сих пор, не так уж и плоха, и ему есть зачем к ней возвращаться.
Доп. информация: Последняя роль в кино Андрея Краско.

Рип: waarheid
Сэмпл:

Качество видео: DVDRip [Исходник: DVD5 (CP Digital, региональное издание)]
Формат видео: AVI
Видео: 704x384 (1.83:1), 25 fps, XviD build 73 ~1399 kbps avg, 0.21 bit/pixel
Аудио: 48 kHz, AC3 Dolby Digital, 3/2 (L,C,R,l,r) + LFE ch, ~448 kbps [оригинальная дорога из DVD9 (CP Digital)]

MediaInfo

Общее
Полное имя : Я остаюсь.2006_DVDRip_by_waarheid.avi
Формат : AVI
Формат/Информация : Audio Video Interleave
Размер файла : 1,46 Гбайт
Продолжительность : 1 ч. 52 м.
Общий поток : 1858 Кбит/сек
Программа кодирования : VirtualDubMod 1.5.10.3 | www.virtualdub-fr.org || (build 2550/release)
Видео
Идентификатор : 0
Формат : MPEG-4 Visual
Профиль формата : Advanced Simple@L5
Параметр BVOP формата : 1
Параметр QPel формата : Нет
Параметр GMC формата : Без точки перехода
Параметр матрицы формата : Выборочная
Идентификатор кодека : XVID
Идентификатор кодека/Подсказка : XviD
Продолжительность : 1 ч. 52 м.
Битрейт : 1400 Кбит/сек
Ширина : 704 пикселя
Высота : 384 пикселя
Соотношение сторон : 1,85:1
Частота кадров : 25,000 кадров/сек
Цветовое пространство : YUV
Субдискретизация насыщенности : 4:2:0
Битовая глубина : 8 бит
Тип развёртки : Прогрессивная
Метод сжатия : С потерями
Бит/(Пиксели*Кадры) : 0.207
Размер потока : 1,10 Гбайт (75%)
Библиотека кодирования : XviD 73
Аудио
Идентификатор : 1
Формат : AC-3
Формат/Информация : Audio Coding 3
Расширение режима : CM (complete main)
Параметр Endianness формата : Big
Идентификатор кодека : 2000
Продолжительность : 1 ч. 52 м.
Вид битрейта : Постоянный
Битрейт : 448 Кбит/сек
Каналы : 6 каналов
Расположение каналов : Front: L C R, Side: L R, LFE
Частота : 48,0 КГц
Частота кадров : 31,250 кадров/сек (1536 spf)
Метод сжатия : С потерями
Размер потока : 361 Мбайт (24%)
Выравнивание : Разделение по промежуткам
Продолжительность промежутка : 40 мс. (1,00 видеокадр)
Время предзагрузки промежутка : 500 мс.

Скриншот c названием фильма

Скриншоты

[cybertorrent.ru].t215.torrent 
Торрент: Зарегистрирован [ 2018-02-15 15:34 ] · 146C2C5E2AEEC845ADBD79F819C9FDFA89B5C622

Скачать .torrent

Скачать

15 KB

Статус: проверено
Скачан: 0 раз
Размер: 1,46 GB
Профиль [ЛС]
Показать сообщения:    

Текущее время: 28-Май 08:08

Часовой пояс: UTC ± 0



Вы не можете начинать темы
Вы не можете отвечать на сообщения
Вы не можете редактировать свои сообщения
Вы не можете удалять свои сообщения
Вы не можете голосовать в опросах
Вы не можете прикреплять файлы к сообщениям
Вы можете скачивать файлы