Статистика раздачи
Размер:  8,64 GB   |    Зарегистрирован:  9 месяцев 5 дней   |    Скачан:  0 раз

Полного источника не было: Никогда

 
   
 
 

DR_KTO ®

Пол:
Не указан
Стаж:
9 месяцев 6 дней
Сообщений:
105

Секреты маленького шефа
Дата/Год выпуска: 2014
Страна: Россия
Жанр: Кулинария для детей
Продолжительность: 25 х 26 мин.
Перевод: Не требуется
Русские субтитры: нет
Ведущий: Сергей Рудзевич
Телеканал: Карусель
Описание: Как научиться готовить легко, весело и вкусно? Пригласите в гости Сергея Рудзевича! Ведущий проекта «Секреты маленького шефа» поможет удивить родителей и вместе с вами превратит обычный ужин в волшебный праздник!
Путешествия в далекие страны и даже сказочные миры — все это возможно прямо на вашей кухне! Достаточно только вооружиться ложками, поварешками, кастрюлей и фантазией. А мама и бабушка наконец-то узнают, как скучную полезную еду сделать веселой и... все равно полезной!
Доп. информация: Запись с канала "Карусель". Краткие названия выпускам даны в соответствии с темами. Отсутствут выпуск №3.
Ссылка на предыдущие и альтернативные раздачи:http://cybertorrent.ru/tracker.php?nm=%EC%E0%EB%E5%ED%FC%EA%EE%E3%EE+%F8%E5%F4%E0
Сэмпл: http://multi-up.com/1026992
качество: SATRip
формат: AVI
Видео: 704x416 (16:9 ) 25 fps, XviD MPEG-4 ~1699 kbps avg, 0.23 bit/pixel
Аудио: 48 kHz, MPEG Layer 3, 2 ch, ~192.00 kbps avg

Список выпусков/серий

01 23 февраля.avi
02 Снеговик из мороженого. Бутерблин. Печёнка с джемом.avi
03
04 Мусс. Бутерброды. Капустное царство.avi
05 Итальянский ужин. Закуска против лени. Овощ для гномов.avi
06 В сказке. Водолазы на кухне. Пуговицы из творога.avi
07 Пирог-наоборот. Закуска мексиканцев. Бешеное яблоко.avi
08 Съедобная ракета. Звёзды на вкус. Жизнь на Марсе.avi
09 Музыкальное путешествие. Съесть гармошку. Фа и соль.avi
10 Кормим динозавра. Съедобный вулкан. Понимаем паруса.avi
11 Съедобная эстафетная палочка. Кулинарный баскетбол. Кёрлинг на тарелке.avi
12 Танцевальный марафон. Авокадо. Чеснок не страшный.avi
13 Рыбалка на кухне. Фруктовая пиротехника. Гречка-вкусная.avi
14 Съедобный театр. Брускетты. Блюдо с ветчиной.avi
15 Мечта футбольног фаната. Съедобные мячики. Козий сыр.avi
16 Вкусная азбука. Школьный бутерброд. Сельдерей.avi
17 Сладкий лебедь. Конфеты на палочке. Пудинг из тыквы.avi
18 Пиратский корабль. Сундук с сокровищами.Рыба-это вкусно.avi
19 Кулинарная картина. Вкусные краски. Цветы из авокадо.avi
20 Котлеты не из мяса. Горячее мороженое. Нелюбимое - в любимое.avi
21 Съедобная боксёрская груша. Голод-в нокаут. Овсянка для чемпиона.avi
22 Рубиновые вишни. Яблочные цветы. Дракон из яиц.avi
23 Географические открытия. Кулинарный остров. Блюдо с грецкими орехами.avi
24 Торт из арбуза. Цветная капуста. Фокус с яйцом.avi
25 Вкусная арена. Закуска клоунов. Шапито из кабачков.avi
26 Пряничная избушка. Ёлочные игрушки. Новогодний салат.avi

MediaInfo

Полное имя : H:\01 РАЗДАЧИ ШОУ\Секреты маленького шефа АВИ 704х416\Секреты маленького шефа\01 23 февраля.avi
Формат : AVI
Формат/Информация : Audio Video Interleave
Размер файла : 346 Мбайт
Продолжительность : 25 м.
Общий поток : 1905 Кбит/сек
Программа кодирования : Lavf54.63.100
Видео
Идентификатор : 0
Формат : MPEG-4 Visual
Профиль формата : Advanced Simple@L1
Параметр BVOP формата : 3
Параметр QPel формата : Нет
Параметр GMC формата : Без точки перехода
Параметр матрицы формата : Default (H.263)
Идентификатор кодека : XVID
Идентификатор кодека/Подсказка : XviD
Продолжительность : 25 м.
Битрейт : 1700 Кбит/сек
Ширина : 704 пикселя
Высота : 416 пикселей
Соотношение сторон : 16:9
Частота кадров : 25,000 кадров/сек
Цветовое пространство : YUV
Субдискретизация насыщенности : 4:2:0
Битовая глубина : 8 бит
Тип развёртки : Прогрессивная
Метод сжатия : С потерями
Бит/(Пиксели*Кадры) : 0.232
Размер потока : 309 Мбайт (89%)
Библиотека кодирования : Lavc54.92.100
Аудио
Идентификатор : 1
Формат : MPEG Audio
Версия формата : Version 1
Профиль формата : Layer 3
Идентификатор кодека : 55
Идентификатор кодека/Подсказка : MP3
Продолжительность : 25 м.
Вид битрейта : Постоянный
Битрейт : 192 Кбит/сек
Каналы : 2 канала
Частота : 48,0 КГц
Метод сжатия : С потерями
Размер потока : 34,9 Мбайт (10%)
Выравнивание : Соединение по промежуткам
Продолжительность промежутка : 24 мс. (0,60 видеокадр)

Скриншоты

[cybertorrent.ru].t2150.torrent 
Торрент: Зарегистрирован [ 2018-02-16 11:35 ] · B7E1EAA23E79C497374193F7CA699F4BF5B9EE50

Скачать .torrent

Скачать

26 KB

Статус: проверено
Скачан: 0 раз
Размер: 8,64 GB
Профиль [ЛС]
Показать сообщения:    

Текущее время: 21-Ноя 15:37

Часовой пояс: UTC ± 0



Вы не можете начинать темы
Вы не можете отвечать на сообщения
Вы не можете редактировать свои сообщения
Вы не можете удалять свои сообщения
Вы не можете голосовать в опросах
Вы не можете прикреплять файлы к сообщениям
Вы можете скачивать файлы
Torrents24.ru открытый BitTorrent Torrents24.pl открытый BitTorrent CyberTorrent.ru открытый BitTorrent BtList.ru рейтинг BitTorrent трекеров Яндекс.Метрика