Статистика раздачи
Размер:  11,16 GB   |    Зарегистрирован:  7 месяцев 6 дней   |    Скачан:  0 раз

Полного источника не было: Никогда

 
   
 
 

karapuz ®

Пол:
Не указан
Стаж:
7 месяцев 7 дней
Сообщений:
128

13 Призраков Скуби Ду / The 13 Ghosts Of Scooby Doo
Страна: США
Жанр: Мультипликация
Продолжительность: ~ 23 мин/серия
Год выпуска: 1985
Перевод 1: Профессиональный (дублированный)
Перевод 2: Профессиональный (многоголосый закадровый) 2 и 10 серия
Русские субтитры: есть - 2,4,5 и 10 серия-Режиссёр: Артур Дэвис, Тони Лав, Дон Ласк / Arthur Davis, Tony Love, Don Lusk
Роли озвучивали: Кейси Касем, Хизер Норт, Винсент Прайс, Сюзан Блу, Арте Джонсон, Ховард Моррис, Дон Мессик-Описание: 13 Призраков Скуби Ду - это приключения Скуби-Ду, Шегги, Дафны Блэйк и Скреппи-Ду.
В это сериале к ним присоединяются великолепный колдун по имени Винсент Ван Гоблин и озорной мальчик Флимфлам.
Вместе они должны поймать 13 Призраков и поместить их в волшебный "Сундук Демонов".-Релиз от -
СПАСИБО: xfiles за предоставленный WEB-DL .
и yaroslav230596 за русские субтитры и многоголоску.-Качество: WEB-DL 1080p
Формат: MKV
Видео: AVC, 1468x1076 (4:3), 23.976 fps, 4 652 Kbps (0.123 bit/pixel)
Аудио 1: AC-3, 48.0 KHz, 2 ch, 192 Kbps, CBR (Russian)
Аудио 2: AC-3, 48.0 KHz, 2 ch, 192 Kbps, CBR (English)
Субтитры: English, Russian

Список серий

1. "To All the Ghouls I've Loved Before" (Всем упырям, которых я любил)
2. "Scoobra Kadoobra" (Скубра-Кадубра)
3. "Me and My Shadow Demon" (Я и моя тень Демон)
4. "Reflections in a Ghoulish Eye" (Отражение в глазу вампира)
5. "That's Monstertainment" (Какое ужасное развлечение)
6. "Ship of Ghouls" (Корабль призраков)
7. "A Spooky Little Ghoul Like You" (Симпатичная нечистая сила)
8. "When You Witch Upon a Star" (Когда ведьмы загадывают желания)
9. "It's a Wonderful Scoob" (Великолепный Скуб)
10."Scooby in Kwackyland" (Скуби в Крякленде)
11."Coast to Ghost" (Побережье призраков)
12."The Ghouliest Show on Earth" (Ужаснейшее шоу на земле)
13."Horror-Scope Scoob" (ХоррорСкоп Скуби Ду)

Подробные технические данные

Общее
Уникальный идентификатор : 192501278377366004932125791511631302378 (0x90D265CB78B6836788CD6C3CD71B0EEA)
Полное имя : \The 13 Ghosts of Scooby-Doo 1080p WEB-DL\The 13 Ghosts of Scooby-Doo S01E02 - Scooby Kadoobra 1080p WEB-DL.mkv
Формат : Matroska
Версия формата : Version 4 / Version 2
Размер файла : 860 Мбайт
Продолжительность : 23 м.
Общий поток : 5056 Кбит/сек
Дата кодирования : UTC 2015-01-22 07:39:55
Программа кодирования : mkvmerge v7.5.0 ('Glass Culture') 32bit built on Jan 4 2015 16:37:25
Библиотека кодирования : libebml v1.3.1 + libmatroska v1.4.2
DURATION : 00:23:32.648000000
NUMBER_OF_FRAMES : 321
NUMBER_OF_BYTES : 17292
_STATISTICS_WRITING_APP : mkvmerge v7.5.0 ('Glass Culture') 32bit built on Jan 4 2015 16:37:25
_STATISTICS_WRITING_DATE_UTC : 2015-01-22 07:39:55
_STATISTICS_TAGS : BPS DURATION NUMBER_OF_FRAMES NUMBER_OF_BYTES
Видео
Идентификатор : 1
Формат : AVC
Формат/Информация : Advanced Video Codec
Профиль формата : High@L4.0
Параметр CABAC формата : Да
Параметр ReFrames формата : 5 кадров
Идентификатор кодека : V_MPEG4/ISO/AVC
Продолжительность : 23 м.
Битрейт : 4379 Кбит/сек
Ширина : 1466 пикселей
Высота : 1076 пикселей
Соотношение сторон : 4:3
Режим частоты кадров : Постоянный
Частота кадров : 23,976 кадра/сек
Цветовое пространство : YUV
Субдискретизация насыщенности : 4:2:0
Битовая глубина : 8 бит
Тип развёртки : Прогрессивная
Бит/(Пиксели*Кадры) : 0.116
Размер потока : 745 Мбайт (87%)
Язык : English
Default : Да
Forced : Нет
Основные цвета : BT.709
Характеристики трансфера : BT.709
Коэффициенты матрицы : BT.709
Аудио #1
Идентификатор : 2
Формат : AC-3
Формат/Информация : Audio Coding 3
Расширение режима : CM (complete main)
Параметр Endianness формата : Big
Идентификатор кодека : A_AC3
Продолжительность : 23 м.
Вид битрейта : Постоянный
Битрейт : 192 Кбит/сек
Каналы : 2 канала
Расположение каналов : Front: L R
Частота : 48,0 КГц
Битовая глубина : 16 бит
Метод сжатия : С потерями
Размер потока : 32,6 Мбайт (4%)
Язык : Russian
Default : Да
Forced : Нет
Аудио #2
Идентификатор : 3
Формат : AC-3
Формат/Информация : Audio Coding 3
Расширение режима : CM (complete main)
Параметр Endianness формата : Big
Идентификатор кодека : A_AC3
Продолжительность : 23 м.
Вид битрейта : Постоянный
Битрейт : 192 Кбит/сек
Каналы : 2 канала
Расположение каналов : Front: L R
Частота : 48,0 КГц
Битовая глубина : 16 бит
Метод сжатия : С потерями
Размер потока : 32,6 Мбайт (4%)
Язык : Russian
Default : Нет
Forced : Нет
Аудио #3
Идентификатор : 4
Формат : AC-3
Формат/Информация : Audio Coding 3
Расширение режима : CM (complete main)
Параметр Endianness формата : Big
Идентификатор кодека : A_AC3
Продолжительность : 23 м.
Вид битрейта : Постоянный
Битрейт : 192 Кбит/сек
Каналы : 2 канала
Расположение каналов : Front: L R
Частота : 48,0 КГц
Битовая глубина : 16 бит
Метод сжатия : С потерями
Размер потока : 32,6 Мбайт (4%)
Язык : English
Default : Нет
Forced : Нет
Текст #1
Идентификатор : 5
Формат : UTF-8
Идентификатор кодека : S_TEXT/UTF8
Идентификатор кодека/Информация : UTF-8 Plain Text
Язык : Russian
Default : Нет
Forced : Нет
Текст #2
Идентификатор : 6
Формат : UTF-8
Идентификатор кодека : S_TEXT/UTF8
Идентификатор кодека/Информация : UTF-8 Plain Text
Язык : English
Default : Нет
Forced : Нет
Меню
00:00:00.000 : en:Chapter 01
00:01:57.544 : en:Chapter 02
00:02:58.544 : en:Chapter 03
00:11:00.315 : en:Chapter 04
00:23:12.980 : en:Chapter 05
[cybertorrent.ru].t2154.torrent 
Торрент: Зарегистрирован [ 2018-02-16 11:35 ] · C56F0CDD609F1CA7727F309E7F9C0091273883DB

Скачать .torrent

Скачать

58 KB

Статус: проверено
Скачан: 0 раз
Размер: 11,16 GB
Профиль [ЛС]
Показать сообщения:    

Текущее время: 22-Сен 19:09

Часовой пояс: UTC ± 0



Вы не можете начинать темы
Вы не можете отвечать на сообщения
Вы не можете редактировать свои сообщения
Вы не можете удалять свои сообщения
Вы не можете голосовать в опросах
Вы не можете прикреплять файлы к сообщениям
Вы можете скачивать файлы
Torrents24.ru открытый BitTorrent Torrents24.pl открытый BitTorrent CyberTorrent.ru открытый BitTorrent BtList.ru рейтинг BitTorrent трекеров Яндекс.Метрика